<?xml version="1.0" standalone="no"?>
<!DOCTYPE svg PUBLIC "-//W3C//DTD SVG 1.1//EN" "http://www.w3.org/Graphics/SVG/1.1/DTD/svg11.dtd" >
<svg xmlns="http://www.w3.org/2000/svg" xmlns:xlink="http://www.w3.org/1999/xlink" version="1.1">
<metadata>
Created by FontForge 20161003 at Mon Jun 19 11:41:28 2017
 By www-data
Martin Vogel's Symbols are released under the Open Font License - look for information and new versions at http://www.marvosym.com - Neue Versionen und Informationen finden Sie auf http://www.marvosym.de
</metadata>
<defs>
<font id="MarVoSym" horiz-adv-x="1304" >
  <font-face 
    font-family="MarVoSym"
    font-weight="400"
    font-stretch="normal"
    units-per-em="2048"
    panose-1="5 0 6 3 2 0 0 2 5 7"
    ascent="1638"
    descent="-410"
    x-height="853"
    cap-height="1465"
    bbox="-1172 -439 6173 1895"
    underline-thickness="0"
    underline-position="0"
    unicode-range="U+0008-FB02"
  />
<missing-glyph horiz-adv-x="1314" 
 />
    <glyph glyph-name=".notdef" unicode="&#x131;" horiz-adv-x="1314" 
 />
    <glyph glyph-name=".notdef" unicode="&#xe01e;" horiz-adv-x="1314" 
 />
    <glyph glyph-name=".null" 
 />
    <glyph glyph-name=".null" 
 />
    <glyph glyph-name="nonmarkingreturn" unicode="&#x9;" horiz-adv-x="1314" 
 />
    <glyph glyph-name="uni000D" unicode="&#xd;" horiz-adv-x="1314" 
 />
    <glyph glyph-name="uni001D" horiz-adv-x="1314" 
 />
    <glyph glyph-name="uni001F" horiz-adv-x="1314" 
 />
    <glyph glyph-name="MVspace" unicode=" " 
 />
    <glyph glyph-name="Stopsign" unicode="!" horiz-adv-x="1645" 
d="M1558 433l-428 -428h-607l-428 428v607l428 428h607l428 -428v-607zM1528 448v578l-412 412h-578l-409 -412v-578l409 -410h578zM1415 494l-345 -343h-486l-343 343v486l343 345h486l345 -345v-486zM1319 826q-5 135 -118 143h-87v-465h54v175l28 1q116 0 123 146z
M1068 736q0 155 -65 207.5t-128 7.5t-67.5 -197t62 -225.5t135.5 -18t63 225.5zM796 890v79h-213v-79h80v-386h55v386h78zM1265 825q-1 -66 -56 -66l-41 -1v132h28q64 5 69 -65zM1013 738q1 -132 -35 -164t-71.5 4t-37.5 155t34.5 148t68.5 2t41 -145zM554 639
q-5 107 -86.5 132t-67.5 83q6 50 44 46q43 18 49 -66l49 2q-1 63 -25 103.5t-75 38.5q-30 0 -61 -24t-36 -108q-5 -48 19 -81t78.5 -52.5t54.5 -82t-50.5 -59t-60.5 91.5l-51 -9q3 -143 111 -157q111 1 108 142z" />
    <glyph glyph-name="Beam" unicode="&#x22;" horiz-adv-x="2002" 
d="M1366 -358v165h474v-165h-474zM690 -358v165h473v-165h-473zM0 -358v165h475v-165h-475zM0 303l2001 -1v-303h-2001v304z" />
    <glyph glyph-name="Bearing" unicode="#" horiz-adv-x="2000" 
d="M1821 0h-1642l704 1007q-11 0 -39 18q-44 26 -76 74q-39 70 -39 154q0 78 50 136q64 75 184 75q123 0 193 -66q48 -50 60 -132l3 -24l1 -24q0 -76 -38 -135q-23 -35 -70 -60l-21 -11l-16 -5zM1093 1340q-22 25 -54.5 38t-63.5 13q-62 0 -110 -44q-23 -21 -38 -54
q-12 -31 -12 -64q0 -62 44 -111l23 -21l29 -17q36 -13 66 -13q61 0 110 45q25 23 36 53q14 30 14 66q0 59 -44 109zM1519 143l-531 759l-506 -759h1037z" />
    <glyph glyph-name="LooseBearing" unicode="$" horiz-adv-x="2000" 
d="M1831 -2h-1652l709 1013q-11 0 -40 19q-44 25 -76 74q-40 70 -40 155q0 79 50 137q65 75 186 75q124 0 194 -67q49 -50 61 -132l3 -24l1 -24q0 -77 -39 -136q-23 -36 -70 -61l-21 -11l-17 -5zM1845 -356h-1666v174h1666v-174zM1099 1346q-23 26 -55 38.5t-64 12.5
q-62 0 -111 -44q-23 -20 -38 -54q-12 -31 -12 -65q0 -62 44 -111l24 -21l29 -17q36 -13 66 -13q62 0 111 45q25 23 36 53q14 31 14 66q0 60 -44 110zM1528 141l-535 765l-509 -765h1044z" />
    <glyph glyph-name="FixedBearing" unicode="%" horiz-adv-x="2000" 
d="M1821 -1h-1640l703 1006q-10 0 -39 18q-44 25 -76 73q-39 70 -39 154q0 78 50 136q64 75 184 75q123 0 192 -66q49 -50 61 -132l3 -23l1 -25q0 -76 -38 -134q-24 -36 -70 -61l-21 -11l-17 -4zM1821 -12l-271 -353h-185l277 353h179zM1402 -12l-271 -353h-185l277 353h179
zM1027 -12l-272 -353h-186l277 353h181zM644 -12l-272 -353h-185l278 353h179zM1094 1337q-22 25 -54.5 38t-63.5 13q-61 0 -110 -44q-23 -21 -38 -54q-12 -31 -12 -64q0 -62 44 -110l23 -22l30 -16q35 -13 65 -13q61 0 110 45q25 22 36 53q14 30 14 65q0 59 -44 109z
M1519 141l-530 759l-506 -759h1036z" />
    <glyph glyph-name="LeftTorque" unicode="&#x26;" horiz-adv-x="2000" 
d="M1893 -14l-615 6l234 152q-11 0 -110 78l-64 55l-51 49l-47 52q-17 21 -20 25q-9 12 -20 30q-109 157 -109 308q0 300 157 485.5t446 237.5l32 -49v-7l7 -24l18 -40q-115 0 -211 -46q-88 -41 -158 -120q-144 -159 -144 -437q0 -113 96 -241q13 -19 35 -44
q19 -22 41.5 -44t46.5 -44q21 -19 51 -43q82 -65 95 -67l74 245z" />
    <glyph glyph-name="RightTorque" unicode="'" horiz-adv-x="2000" 
d="M898 741q0 -147 -108 -308q-38 -57 -88 -107l-54 -51l-61 -53q-97 -77 -110 -78l234 -154l-615 -6l216 519l75 -245q8 0 94 67q100 78 175 175q45 60 70 123t25 118q0 275 -144 437q-130 145 -369 166l18 40l8 24l-1 7l32 49q285 -51 444 -237t159 -486z" />
    <glyph glyph-name="MVLeftBracket" unicode="(" 
d="M828 1461q-160 -445 -172 -845t172 -840h-139q-205 440 -209 844v15q0 397 209 826h139z" />
    <glyph glyph-name="MVRightBracket" unicode=")" 
d="M615 1461q209 -429 209 -826v-15q-4 -404 -209 -844h-139q184 440 172 840t-172 845h139z" />
    <glyph glyph-name="MVMultiplication" unicode="*" 
d="M194 1109q4 1 8 1q33 0 99 -75l362 -363l416 437q4 1 8 1q33 0 99 -75l-437 -448v-22l437 -416l-75 -96q-3 -1 -7 -1q-33 0 -99 76l-363 363l-416 -438q-3 -1 -7 -1q-33 0 -100 76l438 448v21l-438 416z" />
    <glyph glyph-name="MVPlus" unicode="+" 
d="M587 1173h128v-533h534v-128h-534v-533h-128v533h-533v128h533v533z" />
    <glyph glyph-name="MVComma" unicode="," 
d="M604 235h224l-213 -491h-139z" />
    <glyph glyph-name="MVMinus" unicode="-" 
d="M402 608h501v-139h-501v139z" />
    <glyph glyph-name="MVPeriod" unicode="." 
d="M540 235h224v-246h-224v246z" />
    <glyph glyph-name="MVDivision" unicode="/" 
d="M945 1461l-469 -1578h-117l469 1578h117z" />
    <glyph glyph-name="MVZero" unicode="0" 
d="M656 1488q539 -69 539 -738v-19q-8 -687 -523 -749q-570 30 -574 749v10q0 708 558 747zM599 145q331 -15 416 489q21 312 -83 500q-73 125 -229 178q-343 31 -417 -480q-31 -562 313 -687zM440 338q-32 28 -43 73l427 761q29 -18 51 -61z" />
    <glyph glyph-name="MVOne" unicode="1" 
d="M398 1056l11 192q181 64 330 213h171v-1472h-192v1238h-21q-43 -64 -288 -171h-11z" />
    <glyph glyph-name="MVTwo" unicode="2" 
d="M712 1488q245 -32 325.5 -143t80.5 -216q21 -433 -728 -982h760v-158h-1003v180q264 200 538 485q264 306 243 454q-21 158 -211 210q-274 43 -338 -253h-179q44 423 495 423h17z" />
    <glyph glyph-name="MVThree" unicode="3" 
d="M666 1485q457 -28 457 -388q0 -32 -4 -66q-52 -208 -228 -280q259 -69 259 -332q0 -52 -11 -113q-72 -268 -392 -320q-50 -5 -95 -5q-395 0 -516 398v31h197q72 -248 321 -259q227 -10 299 228l-10 134q-72 155 -404 155v155q301 -20 394 217q31 197 -228 280
q-300 31 -352 -238h-175q7 365 488 403z" />
    <glyph glyph-name="MVFour" unicode="4" 
d="M963 1466v-938h277v-160h-277v-373h-192v373h-694v192l640 906h246zM259 528h512v736l-512 -715v-21z" />
    <glyph glyph-name="MVFive" unicode="5" 
d="M1044 1465v-158h-642l-21 -452q199 189 494 95q201 -95 242 -359q4 -46 4 -88q0 -436 -393 -522h-24q-473 0 -544 369v41h199q54 -262 327 -242q115 32 147 74q53 73 85 200q10 337 -232 389q-106 11 -169 -20q-136 -85 -126 -180h-199l9 853h843z" />
    <glyph glyph-name="MVSix" unicode="6" 
d="M601 1496h28q474 0 506 -326v-63h-194q-53 315 -416 179q-171 -125 -224 -504v-21l150 146q256 126 513 0q181 -137 203 -325q4 -42 4 -81q0 -420 -431 -517q-41 -2 -77 -2q-262 0 -383 138q-139 178 -161 409q-3 63 -3 122q0 766 485 845zM601 151q181 -10 276 74
q23 11 98 199q32 284 -235 378q-322 22 -406 -262q-23 -315 267 -389z" />
    <glyph glyph-name="MVSeven" unicode="7" 
d="M703 788l233 516h-797v160h1013v-191l-213 -485h127v-99h-171l-15 -36l-299 -659h-237l313 695h-279v99h325z" />
    <glyph glyph-name="MVEight" unicode="8" horiz-adv-x="1172" 
d="M427 1486q47 3 89 3q229 0 356 -87q142 -103 152 -218q11 -158 -32 -230q-87 -134 -227 -187q305 -89 305 -393q0 -22 -2 -45q-33 -146 -163 -250q-157 -95 -244 -95q-10 0 -18 1q-54 -4 -103 -4q-430 0 -538 337q-2 32 -2 61q0 137 36 190q64 145 260 207
q-282 115 -260 397q31 145 118 208q130 94 273 105zM471 860q172 0 271 53q56 41 87 134q33 210 -239 271q-175 0 -273 -51q-53 -43 -86 -136q-32 -209 240 -271zM471 151q327 -31 401 230q23 249 -270 312q-328 21 -403 -218q-22 -260 272 -324z" />
    <glyph glyph-name="MVNine" unicode="9" 
d="M543 1484q42 4 80 4q458 0 516 -568q11 -78 11 -159q0 -242 -95 -508q-124 -239 -376 -271q-28 -1 -54 -1q-449 0 -490 345v42h189q21 -167 167 -208q240 -43 355 93q74 73 116 480v21l-146 -157q-209 -104 -461 0q-188 115 -220 323v21q0 492 408 543zM554 712
q105 -31 262 63q40 10 104 198q11 271 -241 345q-156 10 -271 -74q-53 -62 -84 -178q-11 -291 230 -354z" />
    <glyph glyph-name="MVRightArrow" unicode=":" 
d="M1261 534l-413 -419h-262l314 327h-843v192h843l-314 322h262z" />
    <glyph glyph-name="Conclusion" unicode=";" 
d="M619 911l656 -376l-653 -379v121l140 80h-691v105h876l124 73l-121 70h-879v105h691l-143 83v118z" />
    <glyph glyph-name="LessOrEqual" unicode="&#x3c;" 
d="M1142 1230h18v-127l-772 -354h772v-109h-1017v136zM143 413h1017v-109h-1017v109z" />
    <glyph glyph-name="Corresponds" unicode="=" 
d="M637 1153l525 -226v-126l-515 226l-498 -226v126zM149 691h1013v-108h-1013v108zM149 412h1013v-108h-1013v108z" />
    <glyph glyph-name="LargerOrEqual" unicode="&#x3e;" 
d="M1156 776v-136h-1017v109h772l-772 354v127h18zM1156 304h-1017v109h1017v-109z" />
    <glyph glyph-name="Equivalence" unicode="?" 
d="M492 799v-85l-98 -56h524l-99 58v83l458 -264l-455 -265v85l96 56h-524l100 -58v-83l-460 263zM262 484h787l85 49l-85 52h-787l-85 -50z" />
    <glyph glyph-name="MVAt" unicode="@" horiz-adv-x="1880" 
d="M1619 -4h189q-88 -180 -272 -282q-210 -116 -512 -116q-293 0 -505 98.5t-315.5 291t-103.5 418.5q0 249 117.5 464t322.5 322.5t468 107.5q224 0 396 -86.5t265 -247.5q46 -80 69 -166t23 -183q0 -226 -139 -408q-174 -230 -447 -230q-74 0 -110.5 25t-49.5 76
q-104 -101 -241 -101q-146 0 -243.5 101t-97.5 270q0 207 117 380q141 208 363 208q156 0 233 -120l22 98h234l-134 -634q-13 -62 -13 -78q0 -22 10 -34q11 -11 25 -11q43 0 110 52q90 66 146 180t56 235q0 218 -158 364.5t-440 146.5q-238 0 -405.5 -97.5t-252.5 -276
t-85 -369.5q0 -187 94.5 -340t265 -223.5t389.5 -70.5q213 0 364.5 59t244.5 177zM662 359q0 -110 45.5 -164t113.5 -54q50 0 94 25q34 17 67 55q46 53 80.5 157t34.5 194q0 100 -46.5 153.5t-117.5 53.5q-76 0 -139.5 -58.5t-97.5 -169t-34 -192.5z" />
    <glyph glyph-name="Pickup" unicode="A" horiz-adv-x="1264" 
d="M1187 536q0 -228 -164.5 -391t-389.5 -163q-102 0 -188 30t-163 95l-120 -120l-83 82l122 121q-54 67 -89 157l-15 43l-9 48q-9 47 -9 98q0 228 162 391t392 163q227 0 390.5 -163.5t163.5 -390.5zM1065 536q0 173 -127.5 303t-304.5 130q-178 0 -306 -128.5t-128 -304.5
q0 -135 87 -260l189 193l88 -88l-191 -191q117 -88 261 -88q92 0 165 30l36 18q9 4 18 9.5t17 12.5q29 18 68 57q128 126 128 307z" />
    <glyph glyph-name="Letter" unicode="B" horiz-adv-x="1806" 
d="M1705 -2h-1606v1065h1606v-1065zM1625 135v799l-534 -380zM1570 993h-1315l644 -484zM1588 78l-573 423l-118 -101l-109 81l-560 -403h1360zM199 942v-807l524 402z" />
    <glyph glyph-name="CESign" unicode="C" horiz-adv-x="2305" 
d="M822 1488l112 -2v-225q-230 30 -423 -130q-150 -139 -179 -362q-8 -228 138 -392q142 -151 356 -172q90 -2 108 4v-225l-26 -2q-18 -2 -38 -2q-61 0 -155 14q-265 56 -441 268q-154 196 -164 430q-1 17 -1 33q0 303 204 525q200 214 509 238zM2098 1488l112 -2v-225
q-74 8 -128 2q-178 -25 -296 -134q-74 -67 -114 -146q-23 -41 -50 -135v-7h439v-232h-435q35 -164 188 -293q117 -90 291 -111q83 -2 105 4v-225l-27 -2q-16 -2 -38 -2q-59 0 -153 14q-266 56 -442 268q-153 196 -164 430q-12 324 202 558q200 214 510 238z" />
    <glyph glyph-name="EurDig" unicode="D" horiz-adv-x="1264" 
d="M766 1215h12q124 0 230 -46q112 -48 203 -138l-40 -104q-178 186 -381.5 182t-326 -110.5t-167.5 -242.5h799l-42 -106h-777q-8 -50 0 -99h736l-42 -106h-674q65 -196 233.5 -291t343 -57t296.5 175v-145q-150 -129 -366 -142q-19 -1 -37 -1q-196 0 -352 120
q-173 132 -223 341h-189l40 106h128q-3 49 0 99h-167l42 106h145q47 187 198 316.5t378 142.5z" />
    <glyph glyph-name="Lightning" unicode="E" horiz-adv-x="952" 
d="M867 1463l-470 -634l417 110l-531 -738l296 -30l-495 -171l8 440l120 -186l290 496l-324 -88l401 801h288z" />
    <glyph glyph-name="BOLogo" unicode="F" horiz-adv-x="2041" 
d="M1739 954v154q0 34 -24.5 59t-59.5 25h-154v172h170q49 0 93 -19.5t76 -51.5t51.5 -76t19.5 -93v-170h-172zM1739 477v84v325h172v-325v-84h-172zM1280 1192q-35 0 -61.5 -25t-26.5 -59v-154h-168v170q0 49 19.5 93t51 76t75.5 51.5t94 19.5h168v-172h-152zM1911 239
q0 -37 -8 -63q-23 -82 -88 -129q-60 -47 -144 -47h-170v47v125h154q20 0 31 4q53 20 53 80v153h172v-170zM717 954v154q0 34 -25.5 59t-60.5 25h-154v172h170q49 0 93 -19.5t76 -51.5t51.5 -76t19.5 -93v-170h-170zM1194 886v-156v-99l-1 -57l-1 -33v-26v-38h-168v409h170z
M1264 0q-84 0 -144 47q-65 47 -88 129q-8 26 -8 63v170h168v-153q0 -29 16.5 -49.5t40.5 -30.5q11 -4 31 -4h152v-125v-47h-168zM172 1192v-238h-172v410h410v-172h-238zM717 477v51q0 10 -2 17.5t-6 15.5q-21 51 -78 51h-154v172h154q35 0 60.5 24.5t25.5 59.5v18h170v-18
q0 -51 -21.5 -94t-58.5 -74q65 -55 78 -139q2 -10 2 -33v-51h-170zM172 612v-51v-84h-172v409h172v-102h238v-172h-238zM887 239q0 -37 -8 -63q-23 -82 -88 -129q-60 -47 -144 -47h-170v47v125h170q19 0 27 4q18 8 30.5 24.5t12.5 38.5v170h170v-170zM0 0v409h172v-233v-4
h238v-125v-47h-410z" />
    <glyph glyph-name="BarOver" unicode="G" horiz-adv-x="0" 
d="M-221 1891v-125h-887v125h887z" />
    <glyph glyph-name="Mobilefone" unicode="H" horiz-adv-x="1769" 
d="M133 46q-3 -11 8 -17l67 -36l11 3l28 52q2 5 -6 12l-69 39q-9 0 -13 -9zM188 141q-3 -11 8 -17l67 -36l11 3l28 52q2 5 -6 12l-69 39q-9 0 -13 -9zM243 236q-3 -11 8 -17l67 -36l11 4l28 51q1 5 -6 13l-69 38q-10 0 -13 -9zM258 -31q-2 -4 5 -9l66 -39q11 -1 15 4l27 51
q0 9 -7 13l-64 37q-11 1 -15 -4zM298 331q-4 -11 7 -16l70 -37q9 0 11 7l25 48q2 5 -5 13l-70 38q-9 0 -12 -9zM313 64q-2 -4 5 -9l66 -39q11 -1 15 4l27 51q0 9 -7 13l-64 37q-11 2 -15 -4zM368 159q-2 -4 5 -9l66 -38q11 -2 14 3l28 51q0 10 -7 13l-64 37q-11 2 -15 -4z
M382 -104l2 -6l75 -42l5 2l32 51q3 11 -8 17l-66 36q-5 2 -12 -5zM422 254q-1 -3 6 -9l66 -38q11 -2 14 3l28 48q3 11 -8 16l-64 37q-11 2 -14 -4zM437 -9l2 -6l75 -42l5 2l31 51q4 11 -7 17l-66 36q-5 2 -13 -5zM492 86l2 -6l75 -42l5 2l31 51q4 11 -7 17l-66 36
q-9 0 -13 -9zM547 181l2 -5l75 -43l5 2l31 52q4 10 -7 16l-66 37q-9 0 -13 -10zM406 578q0 -40 24 -51l322 -183q40 0 51 24l131 232q2 9 -5 33q-6 12 -40 33l-280 161l-20 7q-40 2 -53 -28zM720 53q105 -37 222 -44q-119 -4 -231 26zM825 225l56 -13l61 -5l-72 -2l-53 7z
M883 1084h59q-55 -7 -103 -27l-49 -26l-40 -29l-39 17q94 65 172 65zM870 1280h72q-83 -11 -121 -22l-66 -24l-58 -29l-59 -40l-24 -18q-60 -63 -86 -97q-31 -50 -56 -108q-20 -51 -33 -112l-64 -115q-6 218 124 375q92 100 178 137q86 44 193 53zM903 1477h39
q-73 -7 -141 -21q-102 -26 -161 -59q-68 -37 -108 -66q-188 -144 -260 -364l-25 -95q-9 -71 -11 -128l4 -82l12 -77l17 -62l-35 -62q-58 146 -57 263q-1 168 64 320l31 62q59 90 81 114q44 51 97 95q84 64 89 62q119 66 202 80q76 20 162 20zM640 1024l38 -4
q50 -23 355 -203q29 -18 39 -67q1 -28 -13 -61l-106 -225q-46 -84 -114 -190l-332 -532l-15 -16l-15 -8h-9q-23 0 -55 19l-375 215q-23 17 -25 41v5q0 16 13 39l353 663l54 90l130 185l24 29q29 20 53 20zM975 1084q56 2 97 -5l49 -15q69 -27 117 -71q108 -112 108 -238
q0 -88 -29 -152q-15 -34 -61 -91q-84 -95 -227 -112h-54q38 6 98 26q52 22 88 53l48 48l23 31q53 91 55 190q-2 66 -33 139l-29 53l-36 42q-77 80 -214 102zM975 1280h71l66 -9q89 -20 166 -64l57 -39l46 -40q87 -88 131 -205q37 -144 29 -164q0 -66 -9 -115l-20 -83
q-22 -54 -60 -118q-152 -214 -406 -238h-71q226 20 374 184q46 57 63 86l29 59l18 49q22 83 24 158q-4 82 -16 135q-13 51 -35 97l-28 51q-65 104 -170 172l-91 47q-88 30 -168 37zM975 1477l84 -1q88 -8 162 -31l54 -19q91 -42 126 -64l66 -49q85 -73 144 -156
q122 -179 128 -394l-4 -101l-14 -84l-17 -62l-29 -75l-31 -61l-39 -60l-54 -68l-59 -58q-62 -53 -104 -79q-192 -111 -377 -108h-36q109 13 155 26q124 31 243 113q79 64 106 94l59 71q62 82 111 223q20 75 26 135q9 88 -6 192q0 19 -21 97l-24 64q-53 110 -64 125
q-70 91 -90 109q-115 114 -239 163q-114 48 -256 58z" />
    <glyph glyph-name="Industry" unicode="I" horiz-adv-x="2228" 
d="M2156 1h-2056v767l445 302l144 -302l443 302l143 -302l447 302l145 -302v697h289v-1464zM1860 185v403h-84l-113 233l-353 -242h-118l-116 242l-356 -242h-118l-115 242l-233 -160v-476h1606z" />
    <glyph glyph-name="Estatically" unicode="J" horiz-adv-x="1774" 
d="M898 1506l294 -484q-14 -29 -94 -83l-145 -29q-218 -16 -312 -45l-42 -28l-39 -50l-62 33zM418 691l72 -37l-43 -75q-53 -102 -31 -147l28 -75q-11 -15 33 -130l8 -8q47 8 59 -16l23 -113q45 4 54 75q5 30 -18 118l-31 48l19 40q9 59 -31 109q31 14 52 47l22 45l30 -17
l-30 -56q-26 -17 -24 -43q19 -59 2 -128l38 -69l31 60q-2 49 -55 102q29 19 29 87l28 33l26 -10l-28 -37q2 -48 -17 -78l21 -26l10 -29l24 24l-2 19q-34 23 -22 40l12 47l18 27l20 -8q-26 -35 -26 -61l14 -33q5 -7 31 16l-21 29l19 38l68 -35q2 -32 -92 -98
q-90 -151 -59 -230q25 91 45 96q16 18 61 11q38 -9 57 -38l30 57l109 106h22l641 -370h-1635zM1365 707l16 -5l329 -568l-584 331l109 104l30 41q21 63 34 63l49 20zM530 85l14 6q-5 98 -31 114l-17 -2l2 -38l8 -2zM724 77q52 -13 97 97q5 21 -10 36l-28 14q-53 5 -58 -19
l-32 -87q-10 -28 31 -41zM849 90q54 -8 66 44q5 26 -30 74l-13 -5l-44 -73q-5 -24 21 -40zM941 165q35 5 45 38q3 42 -35 90l-53 -50z" />
    <glyph glyph-name="Coffeecup" unicode="K" horiz-adv-x="1816" 
d="M1627 563q-5 91 -62 130.5t-126.5 18.5t-91 -110t47 -150t147.5 -31t85 142zM696 1488q129 -148 88 -305t48 -347h-68q-88 180 -38.5 336t-29.5 316zM477 1320q61 -90 35.5 -239.5t31.5 -243.5l-69 1q-51 129 -11.5 231.5t13.5 250.5zM716 233l-295 15q-177 233 -159 555
h1079v-39q79 53 170 42.5t151 -82.5q59 -71 59 -147v-3q-1 -78 -37.5 -140t-108 -93t-146.5 -11.5t-148 90.5q-38 -113 -92 -174l-257 -13h611q-33 -68 -110.5 -122.5t-171 -82.5t-190.5 -28h-499q-126 0 -222.5 32.5t-156 84t-92.5 116.5h615zM1016 1311q101 -68 60 -228
t13 -247h-67q-65 96 -1 237.5t-5 237.5z" />
    <glyph glyph-name="Lineload" unicode="L" horiz-adv-x="2002" 
d="M1743 1367v-859h158l-207 -521l-237 521h180v859h-569v-859h158l-207 -521l-237 521h180v859h-573v-854l157 1l-206 -522l-238 522l182 -1v854h-281v100h1997v-100h-257z" />
    <glyph glyph-name="BOLogoL" unicode="M" horiz-adv-x="6363" 
d="M6009 915v147q0 33 -23.5 56.5t-56.5 23.5h-147v164h162q47 0 88.5 -18.5t72 -49t49.5 -72.5t19 -89v-162h-164zM6009 461v80v310h164v-310v-80h-164zM5571 1142q-33 0 -58.5 -23.5t-25.5 -56.5v-147h-160v162q0 47 18.5 89t48.5 72.5t72 49t90 18.5h160v-164h-145z
M6173 234q0 -35 -8 -60q-22 -78 -84 -123q-57 -45 -137 -45h-162v45v119h147q19 0 29 4q51 19 51 76v146h164v-162zM5035 915v147q0 33 -24.5 56.5t-57.5 23.5h-147v164h162q47 0 88.5 -18.5t72 -49t49.5 -72.5t19 -89v-162h-162zM5489 851v-149v-95l-1 -54l-1 -31v-25v-36
h-160v390h162zM5556 6q-80 0 -137 45q-62 45 -84 123q-8 25 -8 60v162h160v-146q0 -28 16 -47.5t39 -28.5q10 -4 29 -4h145v-119v-45h-160zM4515 1142v-227h-164v391h391v-164h-227zM5035 461v48q0 10 -2 17t-6 15q-20 48 -74 48h-147v164h147q33 0 57.5 23.5t24.5 56.5v18
h162v-18q0 -48 -20.5 -89t-56.5 -71q62 -52 75 -132q2 -10 2 -32v-48h-162zM4515 589v-48v-80h-164v390h164v-98h227v-164h-227zM5197 234q0 -35 -8 -60q-22 -78 -84 -123q-57 -45 -137 -45h-162v45v119h162q18 0 26 4q17 7 29 23t12 37v162h162v-162zM4351 6v390h164v-222
v-4h227v-119v-45h-391zM3726 1006v155q0 24 -26 24h-21q-24 0 -24 -22v-157h-49v157q0 10 -6.5 16t-16.5 6h-26q-9 0 -16 -5t-7 -13v-161h-49v222h49v-16q2 2 10.5 10t22.5 8h26q15 0 23 -3t18 -13q17 16 43 16h31q30 0 48.5 -20t18.5 -49v-155h-49zM3381 1006v16
q-2 -2 -11 -10t-22 -8h-24q-31 0 -50.5 20.5t-19.5 50.5v153h49v-153q0 -24 25 -24h28q17 0 25 18v159h51v-222h-51zM3148 1006v155q0 24 -26 24h-27q-10 0 -18 -4t-8 -14v-161h-51v306h51v-100q2 2 11 10t23 8h23q32 0 51.5 -20t19.5 -49v-155h-49zM2971 1075
q0 -30 -19.5 -50.5t-52.5 -20.5h-32q-31 0 -52.5 21.5t-21.5 51.5v82q0 30 20.5 50.5t52.5 20.5h31q33 0 53.5 -19t20.5 -50h-51q0 24 -23 24h-30q-23 0 -23 -24v-84q0 -26 23 -26h30q12 0 17.5 5t5.5 21h51v-2zM3314 428h-33l26 80l-75 216h35l55 -172l55 172h33zM2995 775
v37h37v-37h-37zM3148 691v-118q0 -16 6.5 -26.5t28.5 -10.5h24v-30h-24q-37 0 -52 20t-15 47v118h-39v33h39v84h32v-84h62v-33h-62zM2748 1075q0 -30 -21.5 -50.5t-53.5 -20.5h-29q-31 0 -51.5 21.5t-20.5 51.5v82q0 30 20.5 50.5t51.5 20.5h29q32 0 53.5 -20.5t21.5 -50.5
v-84zM2999 506v218h31v-218h-31zM3587 58q0 -22 -14 -37.5t-41 -15.5h-69q-23 0 -37 14.5t-14 38.5h32q2 -24 21 -24h67q10 0 16.5 7t6.5 17v21q0 22 -23 22h-63q-23 0 -38 14.5t-15 38.5v15q0 24 18 39.5t39 15.5h51q22 0 37.5 -16.5t15.5 -38.5h-31q0 10 -6 18t-18 8h-51
q-23 0 -23 -26v-15q0 -24 23 -24h63q23 0 38 -13.5t15 -37.5v-21zM2517 1083q0 -34 -22.5 -55.5t-54.5 -21.5h-127v306h127q32 0 54.5 -22.5t22.5 -53.5v-24q0 -27 -20 -51q20 -23 20 -51v-27zM2944 557q-2 -21 -15 -36t-40 -15h-69q-23 0 -38.5 15t-13.5 36h33
q0 -21 23 -21h65q22 0 22 21v22q0 22 -22 22h-63q-23 0 -38 15.5t-15 38.5v18q0 24 17 38.5t38 14.5h51q22 0 38.5 -15.5t16.5 -37.5h-31q0 10 -7 17t-19 7h-51q-21 0 -21 -22v-20q0 -23 21 -23h65q24 0 38.5 -15t14.5 -38v-22zM3222 101v-32q0 -21 13 -28t28 -7h34
q25 0 29 24h33q-2 -22 -17.5 -37.5t-44.5 -15.5h-38q-29 0 -48.5 15.5t-19.5 48.5v89q0 27 18.5 46.5t49.5 19.5h34q31 0 49.5 -19.5t18.5 -46.5v-57h-139zM2691 693q-16 0 -26.5 -10t-10.5 -26v-149h-32v216h32v-20q19 22 43 22h37v-33h-43zM2152 1067q0 -27 -20.5 -45
t-48.5 -18h-33q-31 0 -52.5 21.5t-21.5 51.5v82q0 30 21.5 50.5t52.5 20.5h30q31 0 51.5 -20.5t20.5 -50.5v-67h-127v-17q0 -24 25 -24h33q18 0 18 16h51zM3140 67q-2 -27 -16.5 -44.5t-50.5 -17.5h-37q-29 0 -48 19.5t-19 46.5v87q0 27 20 46.5t49 19.5h33q28 0 48.5 -15.5
t20.5 -41.5v-6h-31v4q-2 14 -13 22t-25 8h-33q-35 0 -35 -39v-87q0 -13 9.5 -24t25.5 -11h33q36 0 38 33h31zM1925 1004q-32 0 -53.5 20.5t-21.5 50.5v237h51v-237q0 -24 24 -24h15v-47h-15zM2111 775v37h37v-37h-37zM2293 508h-35l-71 216h36l53 -178l52 178h34zM1748 1006
v16q-2 -2 -11.5 -10t-23.5 -8h-22q-31 0 -51.5 20.5t-20.5 50.5v153h51v-153q0 -24 23 -24h30q25 0 25 18v159h49v-222h-49zM2113 508v216h31v-216h-31zM2425 275v37h37v-37h-37zM1515 1006v155q0 24 -23 24h-28q-8 0 -13 -2t-8 -4q-4 -2 -6 -4v-169h-51v306h51v-100
q4 4 9 8q4 4 11 7t15 3h22q33 0 51.5 -20t18.5 -49v-155h-49zM2426 7v215h32v-215h-32zM1821 573q0 -33 -20.5 -50t-48.5 -17h-64q-30 0 -48.5 20t-18.5 47v239h33v-239q0 -16 11 -26.5t26 -10.5h61q16 0 26.5 10.5t10.5 26.5v239h32v-239zM1337 1075q0 -30 -20.5 -50.5
t-52.5 -20.5h-31q-32 0 -52.5 21.5t-20.5 51.5v82q0 30 20.5 50.5t52.5 20.5h31q34 0 53.5 -19t19.5 -50h-49q0 24 -24 24h-29q-26 0 -26 -24v-84q0 -26 26 -26h29q12 0 18 5t6 21h49v-2zM2154 73q0 -27 -18.5 -47.5t-50.5 -20.5h-58q-28 0 -46.5 18.5t-22.5 45.5h33
q4 -33 38 -33h54q38 0 38 37v20q0 19 -26 33l-88 39q-23 10 -36 25t-13 42v16q0 27 21.5 46.5t49.5 19.5h43q27 0 47.5 -17.5t24.5 -44.5h-31q-4 13 -16 22t-25 9h-43q-16 0 -27 -10t-11 -25v-16q0 -23 18 -31l110 -49q35 -16 35 -59v-20zM1115 1065q0 -25 -17.5 -43
t-44.5 -18h-61q-26 0 -43.5 18t-17.5 45h51q0 -16 12 -16h57q13 0 13 10v24q0 11 -13 11h-53q-26 0 -43.5 16t-17.5 41v18q0 25 17.5 42t43.5 17h47q25 0 43.5 -17t18.5 -44h-51q0 16 -13 16h-45q-12 0 -12 -10v-24q0 -10 12 -10h60q26 0 41.5 -15.5t15.5 -42.5v-18z
M837 1006v155q0 24 -26 24h-29q-10 0 -16.5 -4t-6.5 -14v-161h-51v306h51v-100q1 2 10 10t23 8h25q32 0 50.5 -20t18.5 -49v-155h-49zM1421 508v151q0 16 -9 27t-24 11h-28q-15 0 -26 -10t-11 -26v-153h-31v151q0 16 -10 27t-24 11h-33q-16 0 -26.5 -9t-10.5 -25v-155h-32
v216h32v-16q10 10 18.5 14t24.5 4h27q10 0 24 -6t25 -20q14 14 25 20t28 6h26q27 0 46.5 -19.5t19.5 -47.5v-151h-31zM1766 7v17q-16 -19 -43 -19h-28q-27 0 -46.5 19.5t-19.5 46.5v87q0 27 18.5 46.5t49.5 19.5h32q21 0 37 -15v103h31v-305h-31zM661 1075q0 -30 -22 -50.5
t-53 -20.5h-31q-32 0 -52.5 21.5t-20.5 51.5v82q0 30 19.5 50.5t51.5 20.5h33q33 0 54 -19t21 -50h-51q0 24 -24 24h-29q-24 0 -24 -24v-84q0 -26 24 -26h29q12 0 18 5t6 21h51v-2zM1066 508v14q-15 -16 -45 -16h-29q-67 0 -67 67v151h31v-153q0 -16 9 -25.5t27 -9.5h39
q35 0 35 31v157h34v-216h-34zM1309 275v37h38v-37h-38zM1435 97v-30q0 -33 39 -33h33q24 0 30 24h33q0 -28 -17.5 -40.5t-43.5 -12.5h-39q-29 0 -49 18.5t-20 45.5v89q0 27 19 46.5t50 19.5h35q30 0 49.5 -19.5t19.5 -46.5v-61h-139zM433 1075q0 -30 -20.5 -50.5
t-51.5 -20.5h-30q-31 0 -52.5 21.5t-21.5 51.5v82q0 30 21.5 50.5t52.5 20.5h30q31 0 51.5 -20.5t20.5 -50.5v-84zM1313 7v215h32v-215h-32zM837 508v153q0 16 -11 26t-26 10h-38q-15 0 -25 -9t-10 -25v-155h-33v304h33v-104q10 10 19 14t24 4h32q27 0 46.5 -19.5
t19.5 -47.5v-151h-31zM1262 5q-33 0 -51.5 15.5t-18.5 50.5v241h33v-241q0 -19 12 -27q8 -8 25 -8h12v-31h-12zM151 1006v130h-98v-130h-53v306h53v-125h98v125h53v-306h-53zM1135 71q0 -33 -20.5 -49.5t-48.5 -16.5h-31q-22 0 -37 15v-100h-34v302h34v-17q11 11 20 15t21 4
h27q32 0 50.5 -19.5t18.5 -46.5v-87zM907 71q0 -29 -19.5 -47.5t-48.5 -18.5h-30q-23 0 -39 15v-100h-31v302h31v-17q12 11 22 15t21 4h26q31 0 49.5 -19.5t18.5 -46.5v-87zM198 575q0 -27 -17.5 -47t-51.5 -20h-129v304h129q34 0 51.5 -20.5t17.5 -47.5v-32q0 -33 -26 -53
q26 -19 26 -53v-31zM668 7l-17 58h-132l-17 -58h-36l95 305h51l90 -305h-34zM282 191v-184h-31v184h-39v31h39v24q0 27 20.5 46.5t47.5 19.5h24v-31h-24q-15 0 -26 -11t-11 -26v-22h63v-31h-63zM171 73q0 -27 -21 -47.5t-48 -20.5h-33q-30 0 -49.5 18.5t-19.5 47.5v96
q0 26 20.5 41.5t48.5 15.5h33q27 0 48 -16.5t21 -47.5v-87zM2699 1161q0 24 -26 24h-27q-25 0 -25 -24v-86q0 -24 25 -24h27q26 0 26 24v86zM2464 1238q0 25 -24 25h-74v-76h74q24 0 24 23v28zM2464 1110q0 10 -7 19t-17 9h-74v-81h74q24 0 24 26v27zM3330 158q0 15 -11 26
t-26 11h-34q-15 0 -26 -11t-11 -26v-30h108v30zM2103 1161q0 24 -25 24h-28q-25 0 -25 -24v-23h78v23zM1766 161q0 16 -10 25t-25 9h-34q-15 0 -26 -9t-11 -25v-94q0 -15 11 -24t26 -9h34q11 0 23 6t12 22v99zM1543 160q0 15 -11 25t-27 10h-33q-16 0 -26.5 -10t-10.5 -25
v-32h108v32zM384 1161q0 24 -23 24h-30q-25 0 -25 -24v-86q0 -24 25 -24h30q23 0 23 24v86zM1103 161q0 16 -10.5 25t-26.5 9h-33q-12 0 -23.5 -7t-11.5 -21v-100q0 -33 35 -33h33q37 0 37 33v94zM876 161q0 16 -10.5 25t-26.5 9h-33q-16 0 -26 -10t-10 -18v-100
q0 -33 36 -33h33q37 0 37 33v94zM167 746q0 15 -10 26t-26 11h-100v-108h100q16 0 26 11t10 26v34zM588 281h-6l-55 -184h114zM167 608q0 16 -10 27t-26 11h-100v-106h100q16 0 26 9.5t10 25.5v33zM139 161q0 34 -37 34h-33q-14 0 -26 -8t-12 -26v-92q0 -15 11 -25t27 -10
h33q37 0 37 35v92zM2548 101v-32q0 -21 12.5 -28t28.5 -7h33q26 0 30 24h33q-2 -22 -17.5 -37.5t-45.5 -15.5h-37q-29 0 -48.5 15.5t-19.5 48.5v89q0 27 18.5 46.5t49.5 19.5h34q31 0 49.5 -19.5t18.5 -46.5v-57h-139zM2656 158q0 15 -11 26t-26 11h-34q-15 0 -26 -11
t-11 -26v-30h108v30zM2366 67q-2 -27 -17 -44.5t-50 -17.5h-37q-30 0 -48.5 19.5t-18.5 46.5v87q0 27 19.5 46.5t49.5 19.5h33q28 0 48.5 -16.5t20.5 -42.5v-4h-32v4q-2 14 -12.5 22t-24.5 8h-33q-35 0 -35 -39v-87q0 -13 9.5 -24t25.5 -11h33q35 0 37 33h32zM419 575
q0 -27 -20.5 -48t-47.5 -21h-33q-30 0 -49.5 19t-19.5 48v96q0 26 20.5 41.5t48.5 15.5h33q27 0 47.5 -16.5t20.5 -48.5v-86zM388 663q0 34 -37 34h-33q-14 0 -26 -8t-12 -26v-92q0 -16 11 -25.5t27 -9.5h33q37 0 37 35v92zM641 569q-2 -27 -16.5 -45t-50.5 -18h-37
q-29 0 -48 20t-19 47v86q0 28 20 47.5t49 19.5h33q28 0 48.5 -16.5t20.5 -42.5v-4h-31v4q-2 14 -13 22t-25 8h-33q-35 0 -35 -40v-86q0 -14 9.5 -24.5t25.5 -10.5h33q36 0 38 33h31zM2428 602v-31q0 -21 13 -28t29 -7h33q25 0 29 23h34q-2 -21 -18 -37t-45 -16h-37
q-30 0 -49.5 16t-19.5 49v88q0 28 18.5 47.5t50.5 19.5h33q31 0 50 -19.5t19 -47.5v-57h-140zM2536 659q0 16 -10.5 27t-26.5 11h-33q-16 0 -27 -11t-11 -27v-29h108v29zM2019 508v151q0 38 -35 38h-38q-13 0 -25 -9t-12 -27v-153h-31v216h31v-18q10 10 19.5 15t25.5 5h30
q25 0 45.5 -15.5t20.5 -49.5v-153h-31zM2885 7v151q0 37 -35 37h-37q-14 0 -26 -9t-12 -26v-153h-31v215h31v-17q10 9 20 14t25 5h30q25 0 45.5 -15.5t20.5 -48.5v-153h-31z" />
    <glyph glyph-name="BOLogoP" unicode="N" horiz-adv-x="1336" 
d="M1284 1495l14 6h11q24 0 24 -25v-55h-18v55q0 8 -8 8h-7q-10 0 -10 -8v-55h-16v55q0 8 -8 8h-9q-8 0 -8 -8v-55h-18v80h18v-6q4 6 13 6h6zM1171 1218h-12l8 29l-26 78h12l21 -62l18 62h12zM1059 1341v14h12v-14h-12zM1112 1314v-43q0 -14 12 -14h9v-10h-9q-24 0 -24 22
v45h-13v11h13v28h12v-28h23v-11h-23zM1059 1247v78h12v-78h-12zM1268 1091q0 -20 -21 -20h-24q-19 0 -19 18h13q0 -8 8 -8h22q8 0 8 10v6q0 9 -10 9h-20q-19 0 -19 18v6q0 19 21 19h18q19 0 19 -19h-11q0 8 -10 8h-16q-8 0 -8 -8v-6q0 -8 8 -8h22q19 0 19 -19v-6zM879 1476
q9 -7 10 -18v-8q0 -29 -27 -29h-45v108h45q27 0 27 -26v-8q-1 -12 -10 -19zM1040 1265q0 -18 -20 -18h-25q-18 0 -18 18h12q0 -8 8 -8h23q8 0 8 8v6q0 9 -8 9h-23q-18 0 -18 20v6q0 19 20 19h19q18 0 18 -21h-10q0 10 -10 10h-17q-8 0 -8 -8v-8q0 -8 8 -8h21q20 0 20 -17v-8
zM1139 1106v-13q0 -12 14 -12h10q8 0 11 8h12q-4 -18 -21 -18h-14q-25 0 -25 22v33q0 23 25 23h12q25 0 25 -23v-20h-49zM950 1312q-12 0 -12 -12v-53h-12v78h12v-9q6 9 14 9h15v-13h-17zM760 1443q0 -22 -25 -22h-12q-27 0 -27 24v29q0 27 27 27h12q25 0 25 -27v-20h-45v-9
q0 -8 10 -8h10q6 0 6 6h19zM1073 1071q-24 0 -24 24v31q0 23 24 23h12q25 0 25 -21h-12q0 10 -13 10h-12q-12 0 -12 -12v-31q0 -14 12 -14h12q13 0 13 12h12q0 -22 -25 -22h-12zM907 1265q-4 -18 -22 -18h-15q-24 0 -24 22v31q0 25 24 25h13q26 0 26 -25v-20h-51v-11
q0 -12 14 -12h13q8 0 10 8h12zM678 1421q-25 0 -25 22v86h19v-84q0 -8 8 -8h6v-16h-8zM1006 1149q24 0 24 -25v-53h-12v53q0 14 -12 14h-13q-12 0 -12 -12v-55h-12v78h12v-7q6 7 14 7h11zM745 1341v14h13v-14h-13zM811 1247h-16l-25 78h14l19 -68l20 68h13zM616 1427
q-3 -6 -12 -6h-8q-25 0 -25 27v53h19v-56q0 -8 8 -8h10q8 0 8 6v58h19v-80h-19v6zM745 1247v78h13v-78h-13zM856 1167v12h12v-12h-12zM889 1124q0 25 24 25h13q24 0 24 -23v-20h-49v-13q0 -12 12 -12h13q8 0 10 8h12q-4 -18 -22 -18h-13q-24 0 -24 22v31zM676 1316q4 7 14 9
h12q23 0 23 -25v-53h-12v53q0 14 -13 14h-12q-12 0 -12 -12v-55h-12v78h12v-9zM856 1071v78h12v-78h-12zM801 1071q-25 0 -25 24v31q0 23 25 23h10q27 0 27 -21h-13q0 10 -14 10h-10q-13 0 -13 -12v-31q0 -14 13 -14h10q14 0 14 12h13q0 -8 -6.5 -15t-18.5 -7h-12zM643 1269
q0 -22 -25 -22h-22q-25 0 -25 22v86h13v-86q0 -12 14 -12h20q13 0 13 12v86h12v-86zM760 1095q0 -24 -23 -24h-20q-25 0 -25 22h13q0 -12 12 -12h20q11 0 11 14v6q0 7 -7 11l-36 16q-13 6 -13 21v8q0 22 25 22h14q27 0 27 -22h-13q0 12 -14 12h-14q-12 0 -12 -12v-8
q0 -9 6 -11l37 -16q12 -6 12 -21v-6zM393 1441q0 -20 -22 -20h-23q-18 0 -18 20h18q0 -4 4 -4h19q6 0 6 4v7q0 4 -6 4h-19q-22 0 -22 20v8q0 21 22 21h17q22 0 22 -23h-18q0 6 -4 6h-17q-4 0 -4 -4v-8q0 -4 4 -4h21q20 0 20 -20v-7zM268 1495l15 6h8q22 0 22 -25v-55h-18v55
q0 8 -8 8h-11q-8 0 -8 -6v-57h-18v108h18v-34zM502 1247v53q0 14 -13 14h-10q-12 0 -12 -12v-55h-12v55q0 12 -13 12h-10q-12 0 -12 -12v-55h-12v78h12v-9q4 9 14 9h10q13 0 17 -11q6 11 20 11h8q25 0 25 -25v-53h-12zM1217 409v107q0 24 -17.5 41.5t-42.5 17.5h-106v119
h118q70 0 118 -48t48 -118v-119h-118zM625 1071v8q-9 -8 -17 -8h-8q-27 0 -27 24v31q0 23 27 23h10q11 0 15 -5v35h12v-108h-12zM233 1445q0 -24 -26 -24h-10q-27 0 -27 24v29q0 27 27 27h10q26 0 26 -25h-18q0 8 -8 8h-10q-9 0 -9 -8v-31q0 -8 9 -8h10q8 0 8 8h18z
M377 1247v6q-6 -6 -15 -6h-12q-24 0 -24 22v56h12v-56q0 -12 12 -12h15q12 0 12 12v56h12v-78h-12zM463 1167v12h12v-12h-12zM557 1089q-4 -18 -22 -18h-15q-26 0 -26 22v33q0 23 26 23h12q25 0 25 -23v-23h-51v-10q0 -12 14 -12h15q8 0 10 8h12zM154 1445q0 -24 -27 -24
h-10q-25 0 -25 24v31q0 25 25 25h10q27 0 27 -25v-31zM463 1071v78h12v-78h-12zM295 1247v53q0 14 -12 14h-13q-12 0 -12 -12v-55h-12v108h12v-39q8 9 16 9h9q24 0 24 -25v-53h-12zM446 1071q-24 0 -24 24v84h12v-84q0 -12 12 -12h5v-12h-5zM53 1421v47h-35v-47h-18v108h18
v-45h35v45h19v-108h-19zM1217 79v283h118v-283h-118zM227 1267q0 -20 -24 -20h-13q-24 0 -24 22v31q0 25 24 25h13q24 0 24 -23h-12q0 12 -12 12h-13q-12 0 -12 -14v-31q0 -12 12 -12h13q12 0 12 10h12zM401 1095q0 -24 -24 -24h-10q-7 0 -13 6v-35h-12v107h10v-7q6 7 15 7
h10q24 0 24 -23v-31zM897 575q-25 0 -42 -17.5t-17 -41.5v-107h-119v119q0 70 48 118t118 48h119v-119h-107zM150 1269q0 -22 -27 -22h-10q-27 0 -27 22v33q0 23 27 23h10q27 0 27 -23v-33zM322 1095q0 -24 -25 -24h-12q-6 0 -13 6v-35h-12v107h12v-7q7 7 15 7h10
q25 0 25 -23v-31zM70 1271q0 -24 -25 -24h-45v108h45q25 0 25 -22v-14q0 -11 -11 -17q11 -6 11 -18v-13zM233 1071l-6 22h-43l-6 -22h-14l33 108h18l33 -108h-15zM100 1138v-67h-12v67h-12v11h12v8q0 22 25 22h8v-10h-8q-13 0 -13 -12v-8h21v-11h-21zM25 1071q-25 0 -25 24
v31q0 23 25 23h14q22 0 22 -23v-31q0 -24 -22 -24h-14zM1335 -86q0 -70 -48 -118t-118 -48h-118v118h106q25 0 42.5 17.5t17.5 42.5v106h118v-118zM496 409v107q0 24 -16.5 41.5t-41.5 17.5h-106v119h117q69 0 117 -48t48 -118v-119h-118zM719 79v283h119v-283h-119z
M885 -252q-70 0 -118 48t-48 118v118h119v-106q0 -25 17 -42.5t42 -17.5h107v-118h-119zM119 575v-166h-119v285h285v-119h-166zM496 79v35q0 25 -16.5 42.5t-41.5 17.5h-106v118h106q25 0 41.5 16.5t16.5 41.5v12h118v-12q0 -72 -55 -117q55 -45 55 -119v-35h-118zM614 -86
q0 -70 -48 -118t-117 -48h-117v118h117q20 0 33.5 13.5t13.5 34.5v118h118v-118zM119 174v-95h-119v283h119v-70h164v-118h-164zM0 -252v284h119v-166h166v-118h-285zM870 1505q0 8 -10 8h-24v-29h24q10 0 10 9v12zM870 1458q0 10 -8 10h-26v-31h26q8 0 8 11v10zM1176 1126
q0 12 -13 12h-12q-12 0 -12 -12v-10h37v10zM741 1476q0 8 -8 8h-8q-10 0 -10 -8v-6h26v6zM897 1300q0 14 -14 14h-13q-12 0 -12 -14v-10h39v10zM938 1126q0 12 -12 12h-13q-12 0 -12 -12v-10h37v10zM625 1126q0 12 -15 12h-10q-14 0 -14 -12v-33q0 -12 14 -12h10q15 0 15 12
v33zM545 1126q0 12 -13 12h-12q-14 0 -14 -12v-10h39v10zM137 1476q0 8 -10 8h-8q-10 0 -10 -8v-31q0 -8 10 -8h8q10 0 10 8v31zM389 1126q0 12 -12 12h-12q-11 0 -11 -10v-35q0 -12 11 -12h12q12 0 12 12v33zM137 1302q0 12 -14 12h-10q-15 0 -15 -12v-33q0 -12 15 -12h10
q14 0 14 12v33zM309 1126q0 12 -12 12h-12q-13 0 -13 -10v-35q0 -12 13 -12h12q12 0 12 12v33zM57 1335q0 10 -12 10h-33v-37h33q12 0 12 13v14zM205 1171l-19 -68h37zM57 1284q0 14 -12 14h-33v-41h33q12 0 12 14v13zM49 1126q0 12 -12 12h-12q-13 0 -13 -12v-31
q0 -14 13 -14h12q12 0 12 14v31zM473 1445q0 -24 -27 -24h-10q-26 0 -26 24v29q0 27 26 27h10q27 0 27 -25h-18q0 8 -9 8h-10q-8 0 -8 -8v-31q0 -8 8 -8h10q9 0 9 8h18zM1085 1495l15 6h8q22 0 22 -25v-55h-18v55q0 8 -8 8h-10q-9 0 -9 -6v-57h-18v108h18v-34zM969 1445
q0 -24 -27 -24h-10q-25 0 -25 24v31q0 25 25 25h10q27 0 27 -25v-31zM952 1476q0 8 -10 8h-8q-10 0 -10 -8v-31q0 -8 10 -8h8q10 0 10 8v31zM1051 1445q0 -24 -27 -24h-10q-27 0 -27 24v29q0 27 27 27h10q27 0 27 -25h-19q0 8 -8 8h-10q-8 0 -8 -8v-31q0 -8 8 -8h10q8 0 8 8
h19zM1194 1427q-3 -6 -12 -6h-8q-25 0 -25 27v53h18v-56q0 -8 9 -8h10q8 0 8 6v58h18v-80h-18v6zM508 1495l14 6h8q23 0 23 -25v-55h-18v55q0 8 -9 8h-10q-8 0 -8 -6v-57h-19v108h19v-34z" />
    <glyph glyph-name="HollowBox" unicode="O" horiz-adv-x="1228" 
d="M100 1056h1038v-1055h-1038v1055zM143 52h952v953h-952v-953z" />
    <glyph glyph-name="ArrowOver" unicode="P" horiz-adv-x="0" 
d="M-4 1706l-369 -195l24 135h-823v125h820l-28 124z" />
    <glyph glyph-name="LeftScissors" unicode="Q" horiz-adv-x="1575" 
d="M1502 335q-114 -113 -341 -26l-481 182q-134 -73 -221 -78t-76 -33t15 -95.5t-45.5 -111t-120.5 -43.5t-128 46q-45 36 -45 98q0 19 4 40q17 92 97 116.5t217 31t197 101.5q-38 83 -219 104q-147 -15 -225 37q-71 47 -71 137q0 9 1 19q8 104 121 129q27 6 52 6
q76 0 122 -59q61 -78 26 -147t48 -76t254 -77l563 214q176 68 256 -50l-613 -237zM341 829q-3 59 -41 89t-99 22t-79 -74t31 -109t112 -22t76 94zM348 295q-10 87 -84 98t-113.5 -27t-35 -88t49.5 -81t111 -11t72 109z" />
    <glyph glyph-name="CuttingLine" unicode="R" horiz-adv-x="1577" 
d="M1456 510h-319v52h319v-52zM929 510h-314v52h314v-52zM429 510h-313v52h313v-52z" />
    <glyph glyph-name="RightScissors" unicode="S" horiz-adv-x="1575" 
d="M659 563l-613 237q80 118 256 50l563 -214q171 70 254 77t48 76t26 147q46 59 122 59q25 0 52 -6q113 -25 121 -129q1 -10 1 -19q0 -90 -71 -137q-78 -52 -225 -37q-181 -21 -219 -104q60 -95 197 -101.5t217 -31t97 -116.5q4 -21 4 -40q0 -62 -44 -98q-58 -46 -129 -46
t-120.5 43.5t-45.5 111t15 95.5t-76 33t-221 78l-481 -182q-227 -87 -341 26zM1283 735q63 -21 112 22t31 109t-79 74t-99 -22t-41 -89q13 -73 76 -94zM1272 186q66 -20 111 11t49.5 81t-35 88t-113.5 27t-84 -98q6 -89 72 -109z" />
    <glyph glyph-name="Telefon" unicode="T" horiz-adv-x="1733" 
d="M1655 672q0 -59 -64 -69q-132 -22 -259 4q-63 9 -63 68q192 -43 386 -3zM1653 715q-192 -40 -381 8q-19 45 -66 72q-16 15 -80 30l-3 -79q0 -52 15 -71l61 -61l62 -58l34 -29l39 -41l24 -28l24 -33l19 -37l23 -49q37 -99 44 -160l5 -77l3 -102h-1220v187l3 19l5 40
q10 65 34 120q19 51 59 101q77 94 123 110q48 21 103 111q22 43 22 66l-2 71l-46 -12q-16 -4 -19 -8l-20 -10q-34 -20 -56 -67q-209 -40 -389 0l1 54l3 59q6 35 48 69q124 84 322 129l97 18l103 14l109 9l108 4q224 0 416 -42t317 -131q22 -16 35 -70l11 -51zM462 675
q0 -51 -64 -66q-148 -26 -255 1q-70 16 -70 74q177 -45 389 -9zM1044 770v61q-193 38 -385 5l7 -57q4 -63 94.5 -36t185 0t98.5 27zM1104 398q0 86 -70 146q-66 65 -170 65q-92 0 -166.5 -62t-74.5 -149q0 -82 70.5 -147.5t170.5 -65.5q98 0 169 62.5t71 150.5z" />
    <glyph glyph-name="ClockLogo" unicode="U" horiz-adv-x="1595" 
d="M1533 732q0 -70 -16 -150q-8 -40 -20 -78.5t-31 -82.5q-64 -141 -195 -251l-33 -25l-44 -31l-107 -117h-573q-97 111 -116 123l-41 27l-42 37q-15 13 -35 34t-41 44q-171 204 -171 470q0 77 16 154l21 78l13 35q3 10 7 19.5t11 22.5q33 73 81 136t112 116l36 26l43 28
l106 117h573q94 -105 157 -148l57 -48l59 -68q173 -205 173 -468zM1438 732q0 129 -45 235q-23 54 -56 103.5t-81 97.5q-89 92 -205 145t-251 53q-130 0 -240.5 -46t-205.5 -139q-187 -186 -187 -449q0 -255 187 -449q43 -43 92 -78q43 -31 110 -59q116 -49 244 -49
q265 0 451.5 186.5t186.5 448.5zM1395 682h-102v99h102v-99zM849 1219h-100v101h100v-101zM1162 999l-319 -317l-388 38l16 92l329 -31l291 298zM306 682h-102v99h102v-99zM849 136h-100v102h100v-102z" />
    <glyph glyph-name="CheckedBox" unicode="V" horiz-adv-x="1311" 
d="M106 1056h1038v-68q68 17 102 0v-26l-102 -119v-834h-595l-86 -144l-25 -9h-145l-93 153h-94v1047zM157 256l111 68l68 -8l59 -137l34 -34l443 647q162 187 230 179v34h-941zM583 60h519v741q-145 -188 -502 -715l-17 -9v-17zM149 60h42l-34 102h-8v-102z" />
    <glyph glyph-name="AngleSign" unicode="W" 
d="M723 1113l81 -79q58 -70 63 -86l288 151l-2 -142l-223 -116q-9 -3 -3 -14l33 -93q17 -56 23 -140q10 -184 -58 -337l230 -121v-141l-290 150l-30 -48l-54 -63l-58 -53l-88 104q77 76 107 126l-645 335l642 337h3q-10 19 -59 76l-48 50zM795 324q9 -2 11 14l29 98l9 68
q7 137 -44 267l-412 -219l-14 -4z" />
    <glyph glyph-name="CrossedBox" unicode="X" horiz-adv-x="1219" 
d="M102 1056h1031v-1048h-281l8 -33l-42 -34l-34 8l-60 59h-324l-196 -289l-93 -9l-51 69q17 93 -9 110l68 119q-25 0 -17 26v1022zM145 68q255 349 315 392l-145 417q-17 51 43 68l51 -17l51 34l43 -42l127 -247l239 289l42 34v9h-766v-937zM903 59h187v946h-59l42 -68
l-349 -460l187 -392zM434 59h273l-128 205q-34 0 -42 -34l-86 -154l-17 -8v-9z" />
    <glyph glyph-name="YinYang" unicode="Y" horiz-adv-x="1666" 
d="M930 384q0 37 -29.5 67t-69.5 30q-41 0 -69.5 -28.5t-28.5 -68.5q0 -39 29 -68q31 -26 69 -26q37 0 68 27t31 67zM930 1073q0 -39 -32 -70q-30 -27 -67 -27q-38 0 -69 28q-29 29 -29 69q0 38 29 67t69 29t69.5 -29t29.5 -67zM1186 1084q0 141 -108.5 248t-246.5 107
q-286 0 -495.5 -207t-209.5 -499q0 -283 212.5 -495.5t492.5 -212.5v1q-67 -1 -214.5 78.5t-140.5 274.5q-7 157 97 249t258 100q148 0 251.5 99.5t103.5 256.5zM1588 728q0 -309 -222.5 -531t-534.5 -222q-307 0 -530.5 222t-223.5 536q0 305 219.5 529t534.5 224
q312 0 534.5 -222.5t222.5 -535.5z" />
    <glyph glyph-name="PointingHand" unicode="Z" horiz-adv-x="1911" 
d="M1829 744q0 -40 -50 -72l-47 -16l-65 -15l-169 -10l-161 -10l12 -20l14 -25l5 -25l-9 -45q64 -38 64 -112q0 -22 -4 -28q0 -11 -10 -25q42 -23 42 -94t-70 -113l-38 -15l-46 -17q-25 -8 -53.5 -14t-52.5 -11h-14q-20 0 -33 4l-45 10q-18 4 -40 28l-17 18h-80
q-63 0 -103.5 3t-67.5 11l-54 18l-21 10l-29 18l-18 12q-11 7 -22 17q-6 3 -19.5 10t-23.5 10q-16 8 -42 13l-36 7h-35v-104l-165 -3l-25 -47l-219 25v697l409 17v-65l31 -5q24 0 36 2.5t26 10.5l47 22l62 35l123 61l46 15l49 4q47 0 107 -30h401q42 0 78 -2.5t90 -7.5
q29 0 62 -10q22 -2 64 -19q59 -19 87.5 -47.5t28.5 -70.5zM1762 754q0 39 -53 62q-7 3 -13.5 6.5t-13.5 4.5l-40 10l-44 9l-49 5h-158l-165 1h-144l144 -176l437 18q99 0 99 60zM1306 552q0 33 -32 54q-17 -24 -36.5 -41t-42.5 -28t-44.5 -16t-52.5 -9q-54 0 -99 39
q-80 -26 -100 -107q10 -37 39 -57q20 0 30 -10q21 0 38 3t42 14l51 22l67 28q70 28 105 55t35 53zM1359 404q0 41 -43 47q-34 0 -60 -22q-11 -9 -27 -18q-6 -3 -37 -17l-89 -32l-81 -26l-9 -25q6 -49 74 -49h42l52 7l48 12l34 16q96 37 96 107zM1393 241q0 12 -7.5 26
t-22.5 27q-12 0 -26 -7q-13 -1 -36 -15l-88 -36q-15 -6 -48.5 -15t-71.5 -19q0 -20 -6 -26q6 -54 85 -54h22q19 0 30 4q15 0 50 15q30 9 48 17t39 23q32 30 32 60zM1191 612q0 23 -34 69q-28 36 -94 95l-69 68q-32 26 -95 32q-54 0 -101 -24q-29 -14 -49 -25
q-29 -16 -55 -33l-56 -33l-51 -30q-20 -9 -44 -14.5t-45 -5.5l-12 5v-390h17q43 0 92 -21t108 -64l33 -15l25 -10l21 -10l46 -10q68 -6 105.5 -7.5t97.5 -1.5v34l-5 -5q-7 2 -17.5 10t-24.5 25q-25 33 -25 75q-74 0 -115 111h-29.5t-27.5 -3l-50 3l-34 10l-37 15l-35 14
l-30 11l11 29l49 -10l76 -9q72 0 116.5 23t74.5 57l-90 110l25 29l38 -35l61 -47l56 -40l58 -25l11 -3l7 -4l13 -3q80 14 84 53z" />
    <glyph glyph-name="Divides" unicode="[" 
d="M1108 1467h195l-1097 -1466h-203z" />
    <glyph glyph-name="DividesNot" unicode="\" horiz-adv-x="1301" 
d="M576 1467h157l-1 -502l360 502h209l-570 -766l-2 -701h-157l3 501l-365 -501h-210l575 768z" />
    <glyph glyph-name="Congruent" unicode="]" 
d="M1200 368v-117h-1100v117h1100zM1200 814v-114h-1100v116zM1200 590v-117h-1100v117h1100z" />
    <glyph glyph-name="NotCongruent" unicode="^" 
d="M595 1059h116v-226h489v-127h-489v-120h489v-126h-489v-121h489v-127h-489v-212h-116v212h-488v127h488v121h-488v126h488v120h-488v127h488v226z" />
    <glyph glyph-name="StrikingThrough" unicode="_" horiz-adv-x="0" 
d="M-295 1461l-469 -1578h-117l469 1578h117z" />
    <glyph glyph-name="Explosionsafe" unicode="`" horiz-adv-x="1840" 
d="M646 1208q139 7 214 -79l-81 -69q-85 60 -173 19.5t-77.5 -136t127.5 -132.5h101v-132h-111q-104 -19 -123 -116.5t70 -145.5t177 15l92 -65q-81 -74 -174.5 -83t-181.5 53q-113 94 -99 237q16 97 102 176q-103 105 -94 217q22 207 231 241zM945 802q89 -3 131 -41.5
t76 -103.5q66 105 114 123.5t90 22.5v-111q-29 4 -54 -12t-98 -135q64 -107 82 -129.5t68 -25.5v-106q-46 -2 -97.5 21.5t-103.5 125.5q-56 -102 -105 -125t-106 -21v108q57 0 82 36.5t73 114.5q-77 129 -93 138.5t-59 14.5v105zM149 751l385 -648h774l392 644l-372 624
h-794zM478 1476h909l440 -745l-455 -737h-901v4l-446 750z" />
    <glyph glyph-name="Laserbeam" unicode="a" horiz-adv-x="3216" 
d="M330 868l187 -49l11 20l-43 29l-324 184l38 70l364 -210l18 17v6l-134 131l32 35l137 -134l20 12v9l-210 358l67 41l213 -364v-3l26 11l-49 184l40 14l9 -5l44 -175l11 -6l15 3v425h82v-425q23 -6 26 0l46 183l50 -11l-50 -187l21 -11l29 43l184 324l69 -38l-209 -364
l17 -18h6l131 134l35 -32l-134 -137l15 -20l364 210l41 -67l-356 -207l-9 -9l9 -20l184 49l14 -41q3 -11 -6 -11l-174 -44v-26h1949v-82h-1949l-3 -26l183 -47l-11 -49l-184 49l-12 -20l6 -9l359 -204l-38 -70l-364 210l-18 -17v-6l134 -131l-32 -35l-137 134l-20 -15
l209 -364l-67 -41l-206 356l-12 8l-18 -8l50 -184l-44 -14l-8 5l-44 175h-26v-422h-82v422l-26 3l-47 -183l-46 11l49 187l-20 8l-12 -5l-204 -359l-70 38l210 364v6l-15 12h-8l-131 -134l-35 32l134 137l-15 20l-364 -210l-41 67l364 213h3l-9 23l-186 -49l-15 44l6 8
l175 44l6 12l-3 14h-422v82h422q6 23 0 26l-184 47z" />
    <glyph glyph-name="WritingHand" unicode="b" horiz-adv-x="1743" 
d="M1626 438q0 -73 -11 -156.5t-36 -189.5l-295 -10l-25 107l-173 -35q-27 0 -30 -3q-164 18 -202 18q-173 0 -248 -18l-59 5l-29 5l-31 8l-120 30l-108 -113l-158 -63l-27 -9l-18 -7l-5 6l10 19l12 30l108 200l-27 32l78 219l21 64l23 66l35 89l88 87l64 62l30 25l31 23
l32 20l37 24l91 46l125 -68l153 167q37 39 69 39q21 0 50 -28l10 -16l6 -15l4 -34q0 -27 -9 -45l-145 -167l44 -23l22 -16l35 -25q37 -23 66 -41.5t48 -28.5l42 -16q29 -9 55 -9l25 45l300 -20q42 -137 42 -280zM1316 402q0 106 -37 254l-131 8l-241 148l-115 -130v-40
q0 -59 -23 -96l-75 -94q16 0 19 -4q34 0 60 9l51 17l60 22l-11 -27l-50 -48l-286 -14q-32 0 -56 -9q-12 -3 -24.5 -9.5t-22.5 -17.5q-39 -29 -61 -98l11 -24l4 -10l80 -20q55 11 55 43l-1 40q0 22 -10 52l5 4q31 0 31 -90q0 -21 -22 -49q4 -10 80 -25l145 14l146 18h21
t19 -3q11 0 44 -10l75 -14l68 7l44 12l130 33l13 82q0 18 2.5 42t2.5 27zM756 642l-159 -185l19 -8l15 -6q43 0 85 71q40 74 40 128zM774 911l-17 10l-15 15l-31 22l-32 9q-19 0 -48 -16q-51 -28 -158 -128l-129 -119l-22 -37l-31 -84l-32 -91l40 -23l12 -57l-48 -114h36
l44 40l26 33q12 16 21 33.5t17 37.5l27 75l10 19q0 6 10 16zM274 412q0 46 -18 57l-69 -171q49 0 68 36.5t19 77.5zM247 127l-13 19l-18 27q-7 9 -15.5 15.5t-19.5 10.5q-51 -53 -69 -107l6 -15l14 -10l34 6l35 15q39 19 46 39z" />
    <glyph glyph-name="EurHv" unicode="c" horiz-adv-x="1447" 
d="M747 1487q55 4 106 4q339 0 485 -187l-82 -184q-172 203 -478 187q-329 -66 -360 -382h753l-53 -149l-11 -20h-711l11 -128h658l-64 -170h-552q96 -244 361 -296q309 14 473 218v-239q-80 -128 -367 -159q-572 0 -678 476h-191l58 172l101 -2v128h-159l69 172h106
q4 141 127.5 319t397.5 240z" />
    <glyph glyph-name="EurCr" unicode="d" horiz-adv-x="1404" 
d="M798 1256h7q246 0 357 -146v86q50 54 98 2v-332q-44 -36 -96 6v62q-130 248 -414 221t-370 -401h705q45 -48 -1 -96h-714q-4 -68 8 -130h650q62 -46 4 -96h-636q100 -290 349 -350t445 156q82 30 86 -50q-155 -220 -414 -220q-48 0 -100 7q-330 49 -478 457h-154
q-33 24 -33 48q0 25 35 50h152q-6 62 0 130h-150q-33 21 -33 45t37 51h144q76 486 516 500z" />
    <glyph glyph-name="EurTm" unicode="e" horiz-adv-x="1492" 
d="M847 1419h10q282 0 497 -106l-84 -278q-92 350 -422 318t-389 -511l747 1l-30 -96h-726q-9 -70 0 -136h686l-30 -98h-646q51 -294 247 -395.5t369.5 -35t269.5 273.5v-276q-156 -78 -431 -91q-24 -1 -48 -1q-243 0 -412 123q-186 134 -239 403l-169 1l24 96h130
q-8 70 -2 136h-151l25 96h136q50 233 220.5 400.5t417.5 175.5z" />
    <glyph glyph-name="PeaceDove" unicode="f" horiz-adv-x="1702" 
d="M689 952q20 0 20 -5q3 -10 -10 -18q-19 -2 -20 7q-1 12 10 16zM261 1092v-8q6 -13 4 -16l6 -8l2 -18l5 -10v-30l8 -9q22 -12 36 -28l16 -38l28 -34l8 -9l24 -10q9 -9 33 -19q26 -20 39 -49l9 -15l9 -43l6 -6l10 -3q14 3 21 -22l-4 -18l9 -24l4 -4l9 -2l1 -2q4 3 14 -8
l8 -10l14 -32l6 -6q4 4 25 -19l24 -22l36 -17q22 -18 23 -29q1 -8 -5 -12l-43 -43q-21 -12 -38 -32l-5 -11q-11 -12 -13 -21q11 -2 14 -7q5 -4 1 -38l10 -12l7 -22l23 -6l19 -22q25 -14 26 -19q8 -18 16 -26l26 -19l10 -13l8 -6h3q12 16 32 10q11 -13 35 -34l23 -14l27 -10
q16 -3 23 0l14 15l-3 24l8 28l4 32q2 15 20 21l15 -3l6 -5l10 -23q11 -9 27 -60l11 -10l11 -4l13 11l9 26l8 10l16 12l24 4l14 8l19 35l14 17q19 8 22 13q28 46 27 56l-1 9l-28 27q0 9 -15 17l-17 7l-3 -1l-27 10l-19 5l-26 13l-30 26l-12 13l-6 14q-3 14 13 21h15l37 -10
h17l12 -4h9l13 -4l16 -1q23 -8 40 -6l4 2l45 42q-3 3 17 23q17 15 40 25q15 0 19 5q-3 8 11 24l35 29l8 11q25 26 28 26l16 20q27 22 29 39l-2 21l21 28l1 13l-5 7q-30 14 -30 17q-10 9 -8 20l8 12l38 22q22 1 26 15q7 16 3 54l-6 12l-20 17l4 26l-18 18q2 8 -14 16
q-9 -2 -15 0l-12 10l-1 5l3 23q-10 3 -56 -5q-3 -3 -41 -20q-19 -15 -28 -17l-27 -2l-16 -6l-10 -8l-11 -13q-17 -11 -21 -11l-26 -20l-21 -9l-53 -38l-20 -21q-8 -15 -30 -42q-7 -18 -22 -30l-34 -29l-18 -7h-7l-38 -15l-26 -1l-16 4l-25 22l-9 34l-7 15l-5 4l-33 57
l-17 18l-5 4l-11 12l-32 14l-2 -1l-19 4l-27 -2q-4 3 -34 -27l-13 -38l-21 -15l-6 -10l1 -9l28 1l19 -9q15 -10 15 -32q1 -32 -29 -32l-23 2q-27 15 -45 19l-17 13q-6 0 -56 22l-2 2l-1 -1l-10 5q-9 0 -16 6l-21 21l-14 21q-14 27 -24 67l-29 60l-18 27l-24 28
q-23 23 -32 27h-6q-14 10 -18 6q-16 -9 -23 -23v-16zM810 1490q18 1 36 1q303 0 527 -205q118 -117 177 -255q51 -117 60 -258q1 -16 1 -31q0 -134 -39 -251q-68 -195 -217 -328q-139 -120 -297 -162q-95 -25 -206 -25h-8q-115 0 -199 25q-284 85 -438 328q-38 64 -60 116
q-55 144 -55 289q0 48 6 96q15 96 43 171q88 225 285 361q177 119 384 128z" />
    <glyph glyph-name="barOver" unicode="g" horiz-adv-x="0" 
d="M-161 1465v-125h-903v125h903z" />
    <glyph glyph-name="Biohazard" unicode="h" horiz-adv-x="1800" 
d="M903 1488l-73 -11q-132 -38 -202 -141q-33 -43 -54 -141l-5 -59q2 -48 15 -97q84 -217 317 -238v-98q-38 -3 -54 -35t-3 -61l-84 -49l-37 47l-48 47l-43 30q-85 49 -195 44q-133 -13 -229 -110q-49 -69 -65 -110q-14 -41 -21 -109q-2 -21 7 -89l14 -44l21 -47
q-44 81 -58 172v25q0 60 8 107q17 78 45 128q29 53 61 88l47 46l60 41q66 39 162 59q-78 235 67 432l51 58q52 49 162 93q80 22 115 22h19zM916 1488q105 -2 182 -40q119 -55 191 -167q39 -68 50 -102l14 -57l7 -57l-3 -79l-11 -64l-18 -49q87 -17 139 -46l51 -30l56 -51
q59 -58 100 -147q22 -75 29 -133q1 -14 1 -29q0 -52 -12 -113l-18 -60l-25 -52q47 102 36 212l-13 55q-71 205 -296 239q-70 3 -122 -12q-62 -16 -135 -71l-36 -38l-30 -39l-84 47q13 28 -0.5 61t-54.5 37v98q82 4 154 39q113 62 169 196q23 100 12 166l-12 50
q-86 218 -321 236zM851 596q19 -27 52.5 -28t61.5 26l84 -49l-26 -55q-27 -77 -18 -158q13 -66 30 -97l30 -55q48 -64 106 -100q54 -30 146 -45q66 0 116 11q50 13 93 39q62 42 62 50l52 65l-34 -54q-130 -150 -315 -165l-79 2l-61 10l-57 17l-71 33q-56 35 -122 108
q-41 -50 -96 -92q-95 -49 -119 -53l-61 -13q-63 -10 -153 2q-59 11 -108 33q-128 68 -194 176l38 -48q85 -84 180 -106q159 -31 291 66q66 58 97 126q18 48 29 125q5 98 -39 180zM897 1060l79 -3q120 -26 207 -96q-31 -43 -62 -69q-88 65 -187 76q-129 8 -233 -73l-40 33
l-24 35q106 91 260 97zM1331 706l2 -48l-5 -89q-18 -116 -100 -213l-31 -35q-80 -66 -142 -86q-29 42 -32 89q94 34 160 123q24 48 40 87q21 82 14 152q43 17 94 20zM489 710q27 0 88 -18q-8 -50 0 -109l10 -46q29 -72 43 -90q63 -83 157 -123q-9 -47 -29 -87l-62 27
q-61 41 -96 73q-113 128 -119 285q-2 36 8 88z" />
    <glyph glyph-name="Info" unicode="i" horiz-adv-x="1655" 
d="M1562 166l-2 -29l-1 -18q-1 -3 -1 -4q-3 -9 -9 -20q-3 -12 -10.5 -23t-22.5 -26q-41 -46 -115 -46h-1145q-71 0 -118 43l-17 25l-15 30l-9 37l-2 31v1135q0 75 43.5 120.5t117.5 45.5h1145q65 0 113 -48q48 -43 48 -118v-1135zM1523 166v1135q0 127 -122 127h-1145
q-124 0 -124 -127v-1135q0 -128 124 -128h1145q122 0 122 128zM1048 1138q0 -86 -69 -164q-71 -68 -165 -68q-93 0 -162.5 67t-69.5 165q0 99 66.5 166t165.5 67q95 0 166 -67q11 -12 23 -30.5t24 -42.5l14 -39l6 -23zM1122 169h-591v69h119v549h-116v66h472v-615h116v-69z
" />
    <glyph glyph-name="Radioactivity" unicode="j" horiz-adv-x="1745" 
d="M473 1438l275 -461q-54 -33 -88.5 -83.5t-38.5 -132.5l-539 -2q0 222 111 404t280 275zM871 915q65 -2 108.5 -44t46 -102.5t-38 -107t-101 -51t-110.5 31.5t-58 103.5t38 117.5t115 52zM1258 1443q191 -108 299 -295q101 -177 101 -358v-24l-538 -1q-2 69 -35 124
t-94 87zM748 551q57 -36 122 -36.5t127 37.5l276 -461q-179 -109 -386 -109h-14q-215 4 -394 100z" />
    <glyph glyph-name="EMail" unicode="k" horiz-adv-x="1554" 
d="M1063 1463h292l-145 -182l266 -1v-921h-587l-128 -177l302 -33l-502 -170l7 380h-482v921h882zM729 829l210 392l-725 -1zM159 483l455 343l-455 351v-694zM184 431l606 -1l176 295l-16 10l-308 -82l55 107l-30 22zM952 938l391 282l-178 1zM1395 477v694l-456 -325v-3
l350 92l-170 -240zM926 430h433l-279 210l-154 -207v-3zM674 243l75 118h-151z" />
    <glyph glyph-name="MVArrowDown" unicode="l" horiz-adv-x="2000" 
d="M1466 499l-396 -530l-393 531l-6 5h312v962h181v-968h302z" />
    <glyph glyph-name="Mundus" unicode="m" horiz-adv-x="1678" 
d="M764 1486q20 1 44 1q65 0 143 -15q80 -19 142 -41l109 -55q102 -72 164 -135q103 -120 145 -231q45 -138 48 -206l-3 -160l-4 -11l-6 -55l-40 -130q-26 -60 -70 -131q-61 -86 -138 -154q-201 -165 -447 -181h-81q-70 2 -179 33l-69 24l-99 48q-105 70 -167 140
q-31 33 -80 103q-110 176 -117 386q3 109 16 174q57 256 256 423q186 153 433 173zM775 -4q56 -4 175 10q107 29 138 42l109 55q110 74 158 131q57 62 102 140q75 145 91 307v107q-9 79 -20 126q-29 103 -74 190l-70 99l-59 64q-66 59 -108 85l-72 42h-5v-5l77 -42l4 -9
l42 -28l-2 -6l-68 34l-3 -3v-17l49 -53l6 2l5 9l13 -5l41 -35l56 -75q-9 -19 -2 -22l24 -44l30 -22l-4 -33l-24 19l-5 -1l3 -39l47 -39l16 -55v-51l-27 -50q11 -14 4 -47l-16 2l2 31l-2 2l-9 -2l-4 -24q-2 -9 13 -28q23 0 27 -30q5 -36 -17 -88l-4 11l-10 8l-32 16l-1 -2
l1 -42l18 -25q24 -8 20 -13l10 -44l-2 -4l-21 7v-4q26 -14 34 -32l-7 -42l-19 3l-21 15l-16 36l-30 21l-5 7q-4 16 20 20q22 -18 27 -12l-3 26l-22 16l-8 65l-16 26q-2 2 -16 -16q-12 9 -17 35l-25 18q-3 13 -10 15l-33 -24l-31 -63l-24 -22q8 -16 0 -68q41 -27 22 -56
q-26 -6 -26 24l1 23h-4q-13 -29 -18 -32l-21 25l-43 68l-11 53l-7 7l-15 -9l-33 24q-14 26 -20 26q-66 -12 -71 -9l-28 5l-11 13l-3 -2l5 -22l4 -4q24 0 24 -5q16 -17 8 -24l-14 -15q0 -24 -28 -39q-109 -69 -149 -69q-9 -2 0 -18q17 -2 40 7h26l12 11l15 -2l-4 -33l-21 -40
l-42 -47l-35 -18l-37 -37l-18 -27l4 -17l-1 -12l15 -19l9 -55l-14 -20q-35 -5 -52 -20l10 -33q-1 -21 -22 -15q-2 -11 -24 -40l-26 -9l-67 4l-24 17q-12 22 -57 58v14q-14 4 -12 26l-39 49l-9 19l4 32l11 10l-24 80l-35 49q11 13 6 60l-6 11l-28 1l-5 29l-20 16h-42l-16 15
q-20 -2 -33 9l-11 39l-11 23q4 13 -11 82l9 33q15 18 15 26q7 25 5 51l26 22q7 33 49 31q3 11 25 40l21 2l20 15l18 -17q31 4 97 -12l5 -6l3 -27l-11 -21q9 -16 29 -16l3 -22l24 -24q11 -3 13 6q-2 20 6 23h15l68 -42l35 1q20 -8 22 -1l20 46l-2 6q-23 -4 -27 3q-6 11 -39 6
l-15 27q4 29 0 32l-23 -3l9 -16l-3 -13l-8 2l-11 -11l-14 5q5 30 0 33l-6 8h-9l-3 4l-7 -2l-8 -17l-16 -5q0 -9 -6 -9l-29 22v7q40 -8 47 -2v9l-9 9l-18 39q4 13 0 18l-30 -3l-8 9h-6l-9 -15l-31 -7l-6 -15l-20 -14h-22l-15 12v9l-11 8v9l12 27l23 23l4 17h15q0 -11 9 -15
l23 -11q19 24 17 33l-2 24q9 6 19 5l5 6q-15 4 -13 9l17 10q2 9 -22 12l-2 15l23 22l30 -2l27 29h6l13 -11q-7 -18 -24 -24l-4 -42l-9 -12l2 -3h9l11 10h27l15 31l29 4l-2 5l-13 -5l-9 12l9 24l19 17l41 7q24 13 41 37l37 7h36l44 -35l10 -14q-1 16 7 16l7 -2q-2 -12 7 -14
l58 16l-3 7l-33 4q-9 15 -1 22l33 51l24 -3v-6l-36 -42q-4 -5 3 -11l28 -9h6l8 38l19 -5l18 2l-4 11l10 7l-1 9l17 19l-7 15l2 4h42l7 -14l6 -5l20 28l31 -9l2 2q6 9 -13 20l-2 13q9 4 9 12l-38 52q-28 15 -156 26h-47l-59 -61h-12v-7q12 -4 14 -9l-20 -30l-147 -46h-14
l-22 9l-47 3q-49 -16 -51 -13l2 10l29 30q119 46 160 48q21 12 17 18l-106 -38h-28l-87 -37l-108 -84l-6 2q1 9 -8 10q-202 -195 -234 -491q-6 -186 49 -318q100 -234 272 -345q159 -111 382 -127zM548 1128l9 -10l33 3l6 -8h7q2 17 15 29l15 -5l3 2l-3 12l9 8q-10 16 -6 22
l13 20q16 2 13 9h-6q-20 -18 -24 -11l-9 -12l4 -19l-18 -9l-19 -25l-29 -8l-11 4zM525 1310l8 -1q-5 -14 8 -18q2 -6 -13 -22l-34 2l9 27zM620 938h12q6 11 33 6q15 -15 39 -15q13 -2 22 6l-4 16l-29 17l-4 7l-31 -7q-7 3 -7 23q-2 9 -13 2l-6 -13l-14 -7l-10 -15
q-3 -14 12 -20zM517 956l8 4q5 5 -20 31l-5 24l-10 -2l4 -29zM815 870l31 2q2 4 -15 48l-3 27l-18 19l16 20l-2 5q-9 6 -41 -23v-10l35 -44l-15 -15l-2 -23zM715 572h7l-9 39l-13 12l-5 25l-21 16v33l-16 13v18l-22 34l-4 -3q-5 -10 9 -51l17 -16v-45l17 -21l5 -24
q-2 -2 33 -24zM794 276q24 -9 25 -38v-7l-11 -6l-27 -68l-22 -9q-37 0 -37 35v6l15 16l-9 16q14 28 36 19l17 27zM1487 684l19 -7l-9 -37l9 -25l-7 -19l-6 -44l-36 -21l-11 5l-8 42l17 18v18l29 54zM848 708h9l13 15l-4 9l-38 15l-20 30l-16 -4q-2 -7 34 -58z" />
    <glyph glyph-name="BSEFree" unicode="n" horiz-adv-x="1712" 
d="M432 1466h849l423 -731l-423 -735h-849l-423 731zM518 153h674l334 578l-331 570l-3 12h-674l-331 -578l327 -570zM390 960h93l70 -130l69 130h93l-118 -216l130 -238h-92l-76 143l-10 9l-79 -152h-92l127 238v10zM759 960h277v-76h-200v-102h187v-76h-187v-124h206v-76
h-283v454zM1106 960h76v-378h188v-76h-264v454z" />
    <glyph glyph-name="Football" unicode="o" horiz-adv-x="1654" 
d="M1582 719q0 -190 -105 -364q-25 -42 -54 -79.5t-65 -73.5q-68 -68 -156 -119l-63 -32q-3 -4 -14 -8.5t-19 -7.5q-49 -21 -86 -29q-23 -10 -45 -13q-17 -6 -30 -6l-28 -1l-55 -4h-33q-46 0 -97 5l-98 21q-102 31 -176 72q-175 101 -274 269t-99 362l2 54l5 52l9 50l11 45
q34 113 74 188q103 185 274.5 286t376.5 101q54 0 104.5 -6.5t96 -18.5t89 -30.5t91.5 -43.5q170 -105 267 -286t97 -383zM1553 766v17q0 51 -18 123l-25 72l-30 68q-77 155 -146 202l-20 3l-42 -70q44 -72 66 -135l14 -36l8 -24l7 -25l10 -48l11 -47l51 -58l84 -99l23 4
l6 34zM1350 908q-3 17 -32 105l-30 76l-29 62q-20 38 -100.5 88t-120.5 50q-31 0 -141 -139l-3 -5q-25 -28 -25 -66q4 -19 17 -56l23 -63q12 -31 34 -111l189 -99l18 -9q27 -15 37 -15q19 0 91 74t72 108zM998 1316q0 33 -51.5 89t-100.5 56h-22l-59 -5l-86 -14
q-97 -23 -134 -47q-71 -49 -71 -84l12 -30l32 -50q45 -68 62 -87l146 -10l99 -8q21 0 79 71l49 55q45 45 45 64zM1550 647l-1 40l-23 -5l-2 -34l-5 -34l-9 -38l-10 -35l-40 -92l-40 -82l2 -51q82 130 91 163q11 20 24 78t13 90zM1230 476l-2 37l-7 38l-2 16l-4 31l-8 38
l-20 51l-22 13q-188 108 -230 108q-30 0 -120.5 -70t-90.5 -81l22 -160q19 -115 34.5 -137.5t115.5 -64.5l25 -10l24 -4l37 -3q35 0 74 23l40 24l39 29l42 37l36 37q17 18 17 48zM1399 359l-1 15q-24 14 -81 27l-45 14l-12 2q-22 0 -69 -44q-16 -16 -77 -64l-52 -38l-14 -8
l-10 -7l-10 -4l-29 -23l-11 -39l-14 -49l-8 -34l-1 -14v-12q22 -14 46 -19l16 -3q6 -3 27 -3q55 0 142 50l71 47l59 48q58 54 70 94l2 28zM557 1119q-3 17 -54 95q-56 81 -62 81q-20 0 -38 -6l-35 -16q-41 -23 -78 -63q-75 -84 -122 -211q-32 -110 -32 -132q5 -24 45 -90.5
t54 -66.5q19 0 219 118q19 13 32 64l32 94q39 124 39 133zM739 370l-16 119l-16 100l-11 66q-12 27 -100.5 89.5t-109.5 62.5q-25 0 -132 -65t-107 -80l3 -55l6 -64q15 -89 21 -101q39 -42 136 -112q95 -67 111 -67q27 0 107 37l65 36zM1004 35q-72 32 -145.5 29t-115 -10
t-92.5 -19q112 -35 198.5 -29.5t114 15t40.5 14.5zM640 82l-37 52l-39 51q-46 56 -62 63q-60 32 -170 114q-35 27 -63 43l-22 14l-30 -1l-23 -6q36 -129 181 -238l35 -27l40 -26l37 -22l40 -20l45 -16l28 -3l15 1l11 5z" />
    <glyph glyph-name="arrowOver" unicode="p" horiz-adv-x="0" 
d="M-4 1394l-369 -195l24 135h-823v125h820l-28 124z" />
    <glyph glyph-name="CutLeft" unicode="q" horiz-adv-x="1577" 
d="M1361 389h-319v53h319v-53zM1459 1021l-725 -468l176 -111v-53h-314v53h115l-75 48q-18 -6 -95 -51.5t-193 -84.5q114 -30 114 -123q0 -68 -59 -109q-22 -15 -65 -32l-37 -7l-38 -3q-79 0 -126 35.5t-47 92.5q0 87 111 141l97 43q41 17 81 45l30 21l26 21l97 75l-114 88
l-54 39l-39 19l-137 62q-42 17 -69.5 56t-27.5 82q0 56 46.5 93.5t122.5 37.5q89 0 146.5 -43.5t57.5 -109.5q0 -93 -118 -124q78 -23 148.5 -56.5t137.5 -80.5l452 289q68 41 107 60q46 24 95 37q93 26 150 26q12 0 23 -8zM408 876q0 43 -46 71q-23 14 -51.5 21t-61.5 7
q-48 0 -76 -22q-27 -24 -27 -55q0 -43 44 -72t110 -29q45 0 78 21q30 24 30 58zM405 231q0 79 -102 79q-72 0 -114.5 -24.5t-42.5 -73.5q0 -33 26 -55q4 -4 33 -17l22 -3l24 -2q56 0 105 24t49 72z" />
    <glyph glyph-name="CutLine" unicode="r" horiz-adv-x="1577" 
d="M1361 389h-319v53h319v-53zM834 389h-314v53h314v-53zM334 389h-314v53h314v-53z" />
    <glyph glyph-name="CutRight" unicode="s" horiz-adv-x="1417" 
d="M1291 208q0 -57 -46 -92.5t-126 -35.5q-83 0 -141 42t-58 109q0 90 114 123q-117 37 -195 85l-68 38l-25 13l-76 -48h116v-53h-314v53l176 111l-725 468q5 8 23 8q27 0 63 -5.5t44 -8.5q12 -1 42 -12q34 -9 56 -18q10 -4 37 -17q50 -23 110 -62l451 -289q66 43 132 75
t155 62q-118 27 -118 124q0 64 57.5 108.5t145.5 44.5q75 0 122.5 -36.5t47.5 -94.5q0 -19 -6 -39.5t-20 -41.5q-27 -40 -71 -57l-138 -62l-38 -19l-55 -39l-114 -88l154 -117q41 -27 81 -45l97 -43q110 -48 110 -141zM340 389h-319v53h319v-53zM1235 898q0 14 -6 27t-21 28
q-28 22 -75 22q-69 0 -113 -28q-46 -26 -46 -71q0 -33 28 -58q27 -21 80 -21q64 0 108.5 29t44.5 72zM1235 212q0 48 -44 74l-21 10l-27 7l-30 6l-35 1q-101 0 -101 -79q0 -43 46.5 -69.5t107.5 -26.5q50 0 77 21t27 56z" />
    <glyph glyph-name="fax" unicode="t" horiz-adv-x="1050" 
d="M1024 0h-110l-98 338l-98 -338h-111l-40 223h-180l-35 -223h-101l173 997h102l141 -790l94 319l-136 471h109l82 -282l83 282h109l-138 -471zM333 828h-215v-231h185v-169h-185v-428h-93v997h308v-169zM548 345l-70 475l-74 -475h144z" />
    <glyph glyph-name="FAX" unicode="u" horiz-adv-x="2283" 
d="M2195 4h-2105v1459h2105v-1459zM2128 63v1338h-1967v-1338h1967zM1913 276h-90l-150 382l-153 -382h-86l192 474l-180 457h87l140 -361l143 361h89l-188 -457zM1309 276h-79l-54 289h-216l-58 -289h-78l201 931h91zM759 1121h-304v-326h265v-83h-265v-436h-74v931h378
v-86zM1152 643l-83 421l-90 -421h173z" />
    <glyph glyph-name="Fax" unicode="v" horiz-adv-x="2074" 
d="M1830 1477l-88 -282l-2 -4h-101l-42 -185l342 -3h-4v-581l-613 -428h-1240l-82 141v7l107 297l89 180l108 176h145l53 59q12 194 116 540h106l28 86zM1719 1290l43 135v2h-975l-11 -31l908 -2l2 -16zM1655 1240h31l-15 50l-16 -45v-5zM545 801h980q24 297 107 537v4h-974
q-82 -238 -113 -523v-18zM1644 768q16 -2 16 6l109 122l72 58v2h-251l-18 -164l5 -5l60 -13zM1320 56l563 392h5v479l-7 -2l-94 -81l-116 -132h-11l-92 28l-188 -330l-72 -159l-36 -106l5 -15zM62 166h1166l47 132q69 155 93 195q121 214 146 249v3l-1186 -3l-96 -161
q-97 -192 -95 -197l-75 -210v-8zM107 48h1164l-35 56l-2 10h-1163l33 -58zM932 722h490l-4 -13l-50 -59l-104 -181l-90 -185l-29 -81h-490l45 120l89 180l96 159zM359 695h452v-7l-60 -100l-36 -71h-450q74 151 94 178zM344 567h344q30 68 36 71v5h-339l-41 -74v-2zM910 603
h54l35 63l5 2v3h-49l-45 -64v-4zM1071 603h54l35 63l5 2v3h-49l-45 -64v-4zM1233 603h52l37 63l4 2v3h-49l-44 -64v-4zM807 429h61l35 72v4h-56l-40 -73v-3zM969 429h60l35 72v4h-56l-39 -73v-3zM1129 429h60l36 72v4h-56l-40 -73v-3zM724 254l68 2l24 69v4l-61 -2l-31 -71
v-2zM885 254l67 2l25 69v4h-58l-34 -73v-2zM1047 254l66 2l25 69v4h-58l-33 -73v-2z" />
    <glyph glyph-name="Wheelchair" unicode="w" horiz-adv-x="1380" 
d="M1061 1489q12 1 24 1q76 0 153 -62q22 -15 55 -90l8 -51q1 -1 1 -7q0 -16 -11 -73l-31 -59l-34 -38q-64 -44 -86 -43l-86 -257q86 -46 144 -105q52 -69 68 -109q19 -50 29 -104q5 -37 5 -70q0 -71 -20 -126q-85 -245 -344 -299h-125q-91 21 -132 44l-70 45q-72 69 -91 99
q-32 53 -55 126l-104 -314h-263v145l163 2l139 424h78q0 18 42 96q51 63 81 86q77 62 158 85l88 16l70 -2l79 229v5l-50 30q0 8 -34 38q-70 111 -9 232q45 83 160 106zM631 568h192l44 131v8q-83 -8 -136 -38l-59 -46l-41 -49v-6zM830 142q135 -11 221 60q64 58 77 97
q16 34 27 92q7 101 -36 175q-30 48 -52 65l-53 38h-9l-80 -247h-334l13 -86l27 -61l53 -66q53 -42 146 -67z" />
    <glyph glyph-name="Gentsroom" unicode="x" horiz-adv-x="900" 
d="M428 1489q11 1 22 1q71 0 149 -61q59 -56 62 -141q0 -40 -13 -88q-14 -46 -69 -93q-47 -35 -96 -43h-66q-59 10 -109 50l-39 51q-30 55 -30 100q-3 91 57 159q49 52 132 65zM101 1032l106 -3v-604h-106v607zM239 1032l422 -3v-570h-422v573zM693 1032l106 -3v-604h-106
v607zM239 427l194 -2v-424h-194v426zM467 427l194 -2v-424h-194v426z" />
    <glyph glyph-name="Ladiesroom" unicode="y" horiz-adv-x="741" 
d="M354 1488l68 -2q46 -15 73 -33l46 -34q40 -51 50 -114v-58l-18 -60q-51 -101 -161 -123q-98 -13 -174 47q-38 38 -55 79l-19 55l3 80l29 63l30 40q68 56 128 60zM236 1031h282l7 -15l136 -513v-4h-568zM236 463l126 -3v-458h-108l-18 428v33zM394 463l126 -3l-18 -458
h-108v461z" />
    <glyph glyph-name="EmailCT" unicode="z" horiz-adv-x="2000" 
d="M100 794l730 -329l-109 388l798 -308v120l390 -311l-390 -67v113l-581 208l102 -420l-940 166v440z" />
    <glyph glyph-name="Neutral" unicode="{" horiz-adv-x="1137" 
d="M523 1071q17 1 34 1q183 0 316 -118q137 -126 157 -312v-36q0 -53 -8 -101l-18 -60q-32 -83 -72 -132q-136 -176 -328 -185q-18 -1 -36 -1q-168 0 -269 86q-129 87 -182 235q-21 68 -25 128q-2 15 -2 31q0 44 10 91q36 162 160 267q122 96 263 106zM536 261
q143 -8 252 88q55 56 77 105q21 51 30 114q8 44 -17 140q-45 111 -126 165q-63 40 -161 57q-81 4 -147 -19q-193 -81 -218 -290q-9 -148 96 -261q81 -82 214 -99z" />
    <glyph glyph-name="Male" unicode="|" horiz-adv-x="1453" 
d="M215 618q-4 -143 97 -252q94 -85 214 -98q65 -4 134 17q205 79 227 312q-2 143 -100 246q-59 51 -107 70q-80 24 -99 24q-101 2 -158 -24q-184 -83 -208 -295zM513 1071q190 9 320 -94l195 187l-94 93l424 157l-136 -434l-103 96l-192 -194q167 -236 37 -505
q-126 -220 -390 -244h-18q-187 0 -326 127q-74 68 -117 170q-28 64 -32 165q0 111 42 205q126 246 390 271z" />
    <glyph glyph-name="Hermaphrodite" unicode="}" horiz-adv-x="1471" 
d="M530 1072q175 13 322 -94l193 187l-92 94l420 150l-131 -428l-101 91l-195 -187v-5q136 -187 73 -412l-30 -75q-57 -111 -158 -179q-79 -52 -194 -77v-203h201v-134h-201v-202h-135v202h-201v134h201v205q-205 38 -316 192q-87 134 -87 272q0 111 57 226q62 109 167 175
q85 56 207 68zM545 269q147 -8 260 96q90 98 99 214q2 38 -6 97q-64 228 -300 262q-143 11 -252 -83q-96 -92 -111 -221q-9 -154 85 -256q86 -92 225 -109z" />
    <glyph glyph-name="Female" unicode="~" horiz-adv-x="1137" 
d="M532 1074q17 1 34 1q183 0 316 -118q137 -126 157 -312v-36q0 -53 -8 -101l-18 -60q-32 -83 -72 -132q-123 -148 -304 -177v-203h201v-135h-201v-201h-135v201h-200v135h200v204q-122 24 -194 76q-129 87 -182 234q-21 68 -25 128q-2 16 -2 32q0 44 10 91q36 162 160 267
q122 96 263 106zM545 271q143 -9 252 87q55 56 77 105q21 51 30 114q8 44 -17 141q-45 111 -126 164q-63 41 -161 58q-81 4 -147 -20q-193 -81 -218 -290q-9 -148 96 -261q81 -81 214 -98z" />
    <glyph glyph-name="HERMAPHRODITE" unicode="&#xc4;" horiz-adv-x="1485" 
d="M514 1071q175 13 322 -94l193 187l-92 94l420 150l-131 -428l-101 91l-195 -187v-5q136 -187 73 -412l-30 -75q-57 -111 -158 -179q-79 -52 -194 -77v-203h201v-134h-201v-202h-135v202h-201v134h201v205q-205 38 -316 192q-87 134 -87 272q0 111 57 226q62 109 167 175
q85 56 207 68z" />
    <glyph glyph-name="FEMALE" unicode="&#xc5;" horiz-adv-x="1146" 
d="M523 1069q17 1 34 1q183 0 316 -118q137 -126 157 -312v-36q0 -53 -8 -101l-18 -60q-32 -83 -72 -132q-123 -148 -304 -177v-203h201v-135h-201v-201h-135v201h-200v135h200v204q-122 24 -194 76q-129 87 -182 234q-21 68 -25 128q-2 16 -2 32q0 44 10 91q36 162 160 267
q122 96 263 106z" />
    <glyph glyph-name="MALE" unicode="&#xc7;" horiz-adv-x="1490" 
d="M519 1067q190 9 320 -94l195 187l-94 93l424 157l-136 -434l-103 96l-192 -194q167 -236 37 -505q-126 -220 -390 -244h-18q-187 0 -326 127q-74 68 -117 170q-28 64 -32 165q0 111 42 205q126 246 390 271z" />
    <glyph glyph-name="MaleMale" unicode="&#xc9;" horiz-adv-x="1636" 
d="M424 1079q162 6 257 -76l157 149l-79 75l346 124l-108 -348l-81 76l-157 -151l14 -25q219 41 341 -61l154 148l-76 75l346 125l-111 -348l-78 72l-157 -148q124 -187 35 -398q-124 -200 -316 -208h-22q-136 0 -217 65q-54 38 -111 111q-213 -49 -354 76
q-127 110 -134 277q0 166 111 277q108 105 240 113zM618 492q81 57 103 190l-3 65q-80 -58 -102 -190zM868 271q248 11 286 248q-11 249 -249 287l-84 -9q51 -261 -157 -415q68 -93 204 -111zM434 433l84 9l-13 89q9 210 170 324q-72 97 -203 113q-245 -6 -288 -249
q0 -237 250 -286z" />
    <glyph glyph-name="FemaleFemale" unicode="&#xd1;" horiz-adv-x="1412" 
d="M435 1069q240 0 348 -175q222 43 349 -68q124 -102 143 -269v-15q0 -102 -41 -183q-86 -164 -283 -211v-156h162v-111h-162v-163h-111v163h-162v111h162v161q-187 42 -265 174l-57 -12v-162h163v-110h-163v-162h-110v162h-162v110h162v162q-168 29 -272 179
q-53 96 -53 194q0 104 60 209q130 168 292 172zM445 425l84 8l-13 89q13 219 167 326q-67 93 -200 112q-246 -6 -289 -249q0 -239 251 -286zM629 484q81 57 103 189l-3 64q-81 -56 -103 -188zM878 261q248 11 286 250q-11 249 -248 285l-87 -8l14 -81q-8 -226 -168 -335
q68 -91 203 -111z" />
    <glyph glyph-name="FemaleMale" unicode="&#xd6;" horiz-adv-x="1678" 
d="M444 1078l90 -2q92 -19 164 -71q44 -29 99 -102q216 40 337 -62l154 148l-75 76l344 123l-109 -347l-78 72l-157 -148q137 -219 16 -430q-116 -162 -297 -175q-215 -12 -347 175l-57 -12v-162h162v-109h-162v-164h-111v164h-162v109h162v162q-183 37 -272 184
q-51 104 -51 200q0 107 64 206q111 152 286 165zM455 433l84 8l-13 86q8 219 167 330q-67 92 -200 111q-251 -11 -289 -249q11 -255 251 -286zM639 492q81 57 103 189l-3 65q-81 -57 -103 -189zM889 270q243 6 286 249q3 132 -85 213q-53 52 -164 73l-86 -8l13 -83
q-8 -222 -169 -333q58 -87 205 -111z" />
    <glyph glyph-name="Cross" unicode="&#xdc;" horiz-adv-x="1086" 
d="M987 882h-340v-882h-208v882h-347v203h347v379h208v-379h340v-203z" />
    <glyph glyph-name="CeltCross" unicode="&#xe1;" horiz-adv-x="1293" 
d="M747 624q133 42 177 179h-84l-78 34q-16 -31 -50 -51l35 -77v-85zM245 803h-147v193h147q63 259 322 322v146h180v-147q258 -63 320 -321h147v-193h-147q-60 -259 -320 -322v-474h-180v474q-259 61 -322 322zM472 803h-83q39 -134 178 -179v85l33 77q-33 19 -51 51z
M549 962q17 29 51 50l-33 78v84q-136 -44 -178 -178h83zM712 1012q30 -17 50 -50l78 34h84q-33 101 -149 167l-28 10v-83z" />
    <glyph glyph-name="Ankh" unicode="&#xe0;" horiz-adv-x="1050" 
d="M437 937l-7 10l-21 32q-35 59 -52 107q-29 77 -29 139l4 51l9 46q17 54 37 86q52 79 113 79q73 0 130 -65q66 -77 66 -214q0 -94 -49 -177q-51 -73 -103 -101l441 56l2 -8v-11l-4 -64l-3 -76l-431 17l61 -840h-202l49 844l-366 -36l-3 14l-1 39v110zM551 1095
q50 80 50 124q0 90 -25 124q-23 35 -62 35l-9 -1q-41 0 -62.5 -45.5t-21.5 -116.5q0 -57 40 -127l42 -59z" />
    <glyph glyph-name="WashCotton" unicode="&#xe2;" horiz-adv-x="2784" 
d="M6 1276h216l26 -80l93 -3l148 -26l9 -6q10 6 126 -42q96 -55 170 -84l103 -29q96 -13 170 -13l116 13l84 26l125 61q52 39 145 68l125 22q84 7 155 0q73 -6 189 -42l209 -99l77 -26q139 -32 177 -29l87 289h212v-19l-379 -1260h-2000l-383 1273v6zM540 212h1698l215 714
v6q-109 7 -193 33l-128 51q-129 71 -184 87l-148 25q-115 4 -196 -9l-9 -7l-45 -6l-90 -35l-7 -10l-42 -16q-99 -58 -154 -77l-96 -23q-87 -9 -187 -6l-125 19l-74 23l-200 96l-115 39l-116 19l-80 3z" />
    <glyph glyph-name="WashSynthetics" unicode="&#xe4;" horiz-adv-x="2784" 
d="M6 1276h216l26 -80l93 -3l148 -26l9 -6q10 6 126 -42q96 -55 170 -84l103 -29q96 -13 170 -13l116 13l84 26l125 61q52 39 145 68l125 22q84 7 155 0q73 -6 189 -42l209 -99l77 -26q139 -32 177 -29l87 289h212v-19l-379 -1260h-2000l-383 1273v6zM540 212h1698l215 714
v6q-109 7 -193 33l-128 51q-129 71 -184 87l-148 25q-115 4 -196 -9l-9 -7l-45 -6l-90 -35l-7 -10l-42 -16q-99 -58 -154 -77l-96 -23q-87 -9 -187 -6l-125 19l-74 23l-200 96l-115 39l-116 19l-80 3zM1067 -106h643v-216h-643v216z" />
    <glyph glyph-name="WashWool" unicode="&#xe3;" horiz-adv-x="2784" 
d="M6 1276h216l26 -80l93 -3l148 -26l9 -6q10 6 126 -42q96 -55 170 -84l103 -29q96 -13 170 -13l116 13l84 26l125 61q52 39 145 68l125 22q84 7 155 0q73 -6 189 -42l209 -99l77 -26q139 -32 177 -29l87 289h212v-19l-379 -1260h-2000l-383 1273v6zM540 212h1698l215 714
v6q-109 7 -193 33l-128 51q-129 71 -184 87l-148 25q-115 4 -196 -9l-9 -7l-45 -6l-90 -35l-7 -10l-42 -16q-99 -58 -154 -77l-96 -23q-87 -9 -187 -6l-125 19l-74 23l-200 96l-115 39l-116 19l-80 3zM431 -106h640v-216h-640v216zM1707 -106h640v-216h-640v216z" />
    <glyph glyph-name="Heart" unicode="&#xe5;" horiz-adv-x="1580" 
d="M1452 1061q0 -114 -29 -213q-6 -27 -15 -52.5t-22 -52.5l-23 -52l-28 -51q-54 -100 -188 -266l-72 -89l-88 -103l-74 -84l-149 -164l-152 168l-126 144l-100 119q-47 60 -60 78q-27 36 -52 72q-46 67 -80 122q-52 93 -89 209l-22 103l-6 53l-3 17v34q0 193 101 313.5
t265 120.5q89 0 172 -50q72 -43 152 -154q67 99 150 153q40 26 83 38.5t89 12.5q162 0 264 -117.5t102 -308.5zM1320 1035q0 143 -73.5 231.5t-189.5 88.5q-75 0 -146.5 -52t-146.5 -163q-70 104 -144.5 159.5t-149.5 55.5q-110 0 -187.5 -88.5t-77.5 -231.5
q0 -179 116 -385q45 -80 168 -238l61 -72l64 -76l71 -78l47 -52l32 -34q317 340 440 550q55 99 87 198q15 55 21 94t7 53t1 40z" />
    <glyph glyph-name="EstimatedSign" unicode="&#xe7;" horiz-adv-x="1872" 
d="M925 1488q199 0 400 -91q89 -42 181 -119q102 -95 118 -128q33 -40 74 -121q67 -138 67 -316l-2 -1h-1342q-24 0 -24 -24v-350q0 -95 70 -140q42 -37 108 -77q51 -35 163 -67q96 -27 190 -27q116 0 249 45q104 43 164 87q42 30 124 115h123v-2q-97 -106 -138 -125
q-227 -166 -544 -166q-91 0 -242 37q-153 49 -275 136q-55 46 -99 90q-141 155 -181 324q-20 106 -20 146q0 205 96 367q70 127 210 236q240 171 530 171zM397 1130v-346q0 -28 27 -28h1005q28 0 28 26v347q0 82 -48 122q-88 78 -176 121q-157 69 -308 69q-148 0 -307 -70
q-54 -27 -127 -82q-78 -62 -81 -87q-13 -21 -13 -72z" />
    <glyph glyph-name="Tumbler" unicode="&#xe8;" horiz-adv-x="1660" 
d="M169 1046q45 91 82 136q127 155 266 212v3h-348v-351zM1491 1049h3v348h-348l133 -81l82 -73l60 -73q64 -90 70 -121zM1137 70h357v351l-36 -70l-66 -91l-40 -45l-85 -73q-112 -69 -130 -69v-3zM99 1467h1465v-1467h-1465v1467zM169 70h354l-75 38q-85 53 -158 130
l-57 73q-49 67 -61 110h-3v-351zM810 70l127 9l88 20q54 16 136 59q303 187 333 535q3 81 -6 151q-22 94 -45 154q-101 206 -263 302q-152 88 -327 97q-73 4 -197 -21l-85 -27l-91 -49l-69 -51l-58 -51l-63 -79q-106 -157 -121 -342q-3 -82 6 -150q45 -252 239 -409
q154 -127 396 -148z" />
    <glyph glyph-name="NoTumbler" unicode="&#xea;" horiz-adv-x="1660" 
d="M104 1467h1464v-263l9 -15l-9 -9v-892l9 -6q-16 -12 -9 -36v-245h-1464v266l-9 15l9 9v892l-9 6q16 12 9 36v242zM222 1144l12 3q27 48 85 108q78 70 148 116l54 23v3h-347v-220l45 -27zM174 1047l30 61l6 3l-30 23h-6v-87zM833 757q6 -4 61 33l483 312h6q6 6 -48 72
q-70 73 -106 97q-100 69 -179 94q-145 32 -193 32q-73 4 -197 -20q-102 -31 -156 -63l-88 -64l-45 -40l-82 -99v-9zM1441 1144h9l48 33v220h-347l133 -80q127 -110 157 -173zM1495 1050h3v84q-3 3 -36 -20zM264 394l55 30l478 309h6v5l-530 333l-3 6q-9 -3 -54 -102l-24 -76
l-18 -121l3 -136q27 -124 45 -163zM1402 394h6q66 106 90 299l-3 136q-18 97 -48 169l-42 79l-530 -339h-6v-5l530 -333zM174 337l33 17l-30 67h-3v-84zM174 71h353l-75 38l-78 55l-64 58q-76 87 -79 106h-9l-48 -34v-223zM815 71q209 3 359 93q73 46 137 106l75 93l-3 7
l-544 345l-18 -7l-535 -342q66 -114 221 -208q111 -58 166 -66q69 -15 142 -21zM1492 337h6v84l-33 -61l3 -9zM1142 71h356v223l-45 27l-3 7h-9l-33 -52l-64 -72l-72 -61q-113 -69 -130 -69v-3z" />
    <glyph glyph-name="OktoSteel" unicode="&#xeb;" horiz-adv-x="1530" 
d="M492 1333h553l388 -388v-560l-388 -388h-560l-388 388v560z" />
    <glyph glyph-name="HexaSteel" unicode="&#xed;" horiz-adv-x="1692" 
d="M460 1328h775l382 -664l-386 -670h-768l-388 668z" />
    <glyph glyph-name="SquareSteel" unicode="&#xec;" horiz-adv-x="1553" 
d="M104 1341h1340v-1340h-1340v1340z" />
    <glyph glyph-name="RectSteel" unicode="&#xee;" horiz-adv-x="1280" 
d="M103 1337h1070v-1336h-1070v1336z" />
    <glyph glyph-name="CircSteel" unicode="&#xef;" horiz-adv-x="1349" 
d="M626 1147q20 1 41 1q226 0 391 -146q169 -155 193 -385q1 -22 1 -44q0 -66 -11 -125l-22 -74q-39 -103 -89 -163q-167 -216 -405 -228q-22 -1 -44 -1q-207 0 -332 105q-159 108 -225 290q-26 84 -31 158q-2 19 -2 39q0 54 12 112q45 200 198 330q150 118 325 131z" />
    <glyph glyph-name="FlatSteel" unicode="&#xf1;" horiz-adv-x="1551" 
d="M103 661h1340v-275h-1340v275z" />
    <glyph glyph-name="SquarePipe" unicode="&#xf3;" horiz-adv-x="1548" 
d="M103 1341h1340v-1340h-1340v1340zM373 270h796v797h-796v-797z" />
    <glyph glyph-name="RectPipe" unicode="&#xf2;" horiz-adv-x="1269" 
d="M101 1337h1070v-1336h-1070v1336zM371 271h530v796h-530v-796z" />
    <glyph glyph-name="LSteel" unicode="&#xf4;" horiz-adv-x="1543" 
d="M102 1342h270v-1066h1070v-275h-1340v1341z" />
    <glyph glyph-name="TTSteel" unicode="&#xf6;" horiz-adv-x="1551" 
d="M99 1341h1336v-274h-535v-796h535v-270h-1336v270h531v796h-531v274z" />
    <glyph glyph-name="CircPipe" unicode="&#xf5;" horiz-adv-x="1545" 
d="M785 1350q300 -10 490 -214q186 -200 186 -463v-11q-6 -228 -162 -436t-496 -245q-308 7 -509 210t-203 481q8 286 211 483q201 195 477 195h6zM785 252q124 0 258 104t146 302q6 150 -95 277t-315 145q-149 -2 -268.5 -101t-145.5 -295q-8 -154 105 -289t315 -143z" />
    <glyph glyph-name="TSteel" unicode="&#xfa;" horiz-adv-x="1551" 
d="M103 1341h1336v-274h-535v-1066h-270v1066h-531v274z" />
    <glyph glyph-name="RoundedLSteel" unicode="&#xf9;" horiz-adv-x="1048" 
d="M104 1341q21 3 39 3q73 0 95 -49l4 -1065q15 -84 95 -92h540q50 -11 57 -53v-84h-830v1340z" />
    <glyph glyph-name="RoundedTTSteel" unicode="&#xfb;" horiz-adv-x="1032" 
d="M92 1332h842l-4 -53q-14 -31 -42 -38l-258 -21q-74 -28 -81 -88v-943l32 -49l45 -25l273 -28q37 -20 37 -63q0 -10 -2 -21l-842 -3l3 59q11 21 38 32l245 21q49 17 74 38q34 39 27 95l-3 901q-21 56 -70 70l-56 11l-189 10q-45 7 -62 32q-8 23 -8 46q0 8 1 17z" />
    <glyph glyph-name="RoundedTSteel" unicode="&#xfc;" horiz-adv-x="1376" 
d="M63 1324h1249v-95q-13 -44 -44 -51q-335 -17 -359 -24q-6 4 -57 -37l-31 -41l-10 -57l-61 -985q-10 -44 -51 -51q-57 0 -71 44l-6 44l-61 989q-4 27 -51 71q-27 20 -58 27l-345 20q-41 17 -44 51v95z" />
    <glyph glyph-name="NoBreakSpace" unicode="&#x2020;" 
 />
    <glyph glyph-name="Shilling" unicode="&#xb0;" horiz-adv-x="1428" 
d="M143 -432q-37 -7 -61 -7q-38 0 -44 19q0 14 5 34q22 85 49 93.5t64.5 105.5t103.5 316q41 134 103 390h1q24 100 50 214q125 554 203.5 642t168.5 99q40 6 78 6q76 0 143 -24q138 -45 209.5 -147t43 -215t-116.5 -184.5t-141 -85.5q132 -47 229 -122t129 -206
q10 -41 10 -84q0 -93 -47 -192q-70 -145 -244 -206q-86 -29 -220.5 -18.5t-337.5 87.5q21 50 61 92q191 -96 271.5 -104.5t123.5 11.5q136 62 171.5 195t-4 240.5t-120 171.5t-205.5 108q3 42 24 81q105 51 178 113.5t66 170t-72 160.5q-49 39 -97.5 43t-101.5 -29
q-68 -43 -111 -179t-140 -574q-26 -115 -53 -223h-7q-56 -196 -117 -359q-118 -314 -150 -352t-95 -81z" />
    <glyph glyph-name="Deleatur" unicode="&#xa2;" horiz-adv-x="1712" 
d="M968 1488q128 -8 202 -56t122 -138t60 -240t-16 -274q172 -84 250 -182t84 -204q1 -13 1 -27q0 -95 -37 -209q-42 -130 -82 -220t-24 -142t-16 -96q-19 -26 -49 -26q-21 0 -47 12q-64 30 -68 132t16 190t66 202t56 200t-20 132t-150 106q-40 -180 -78 -284t-94 -188
t-112 -140t-148 -70t-176 34t-130 126t-84 132t-94 60t-112 -50t-132 -224q-48 -76 -98 -48q-20 12 -20 36q0 38 44 106q74 114 150 210t202 134t192 6t100 -94t72 -118t92 -66t102 22t98 138t110 326q-140 52 -234 104t-160 120t-98 168t0 194t92 142t168 64zM1000 1364
q-68 -8 -102 -44t-36 -112t48 -154t116 -130t198 -112q24 112 30 198t-24 166t-80 130t-150 58z" />
    <glyph glyph-name="Pfund" unicode="&#xa3;" horiz-adv-x="1504" 
d="M464 1499q254 0 422.5 -43t235 -70.5t107.5 -27.5t70.5 23.5t31.5 55t35 48.5q12 6 23 6q19 0 36 -20q21 -25 21 -53q0 -6 -1 -13q-6 -35 -55 -78t-143 -64.5t-256.5 13.5t-325 58.5t-276 13.5t-172 -43t-78.5 -90t-8 -129.5t65 -101.5t178 -84q78 270 94 301.5t49 37
t64.5 -10t31.5 -66.5t-18 -109.5t-49 -187.5q180 -28 325 -32q67 243 90.5 300t70.5 57t66.5 -27.5t3.5 -106t-59 -254.5q106 -12 180.5 -47t115.5 -115.5t33 -197.5t-76.5 -223t-146.5 -166.5t-151 -70.5q-12 -1 -25 -1q-62 0 -131 38q-84 47 -139 153
q-114 -106 -176.5 -145t-127 -23.5t-113.5 66.5t-51 151t33 244.5t82 340.5q-156 51 -218.5 117.5t-76.5 144.5q-5 29 -5 60q0 52 15 109q23 90 109 162t290 100zM528 796q-88 -332 -118 -470t-20 -174t46 -46t98 30t116 114t102 198t100 312q-148 0 -324 36zM1036 744
q-84 -268 -120 -388t-38 -152t16 -62t70 -46t112 12t110 88t80 138t34 164t-30 128t-102 76t-132 42z" />
    <glyph glyph-name="EUR" unicode="&#xa7;" horiz-adv-x="1638" 
d="M1013 1490h16q152 0 281 -55q137 -59 249 -170l-50 -128q-217 228 -467 223t-400 -135.5t-205 -297.5l980 1l-52 -130h-953q-9 -62 0 -122h903l-52 -130h-827q81 -240 287.5 -356.5t420.5 -70t363 214.5v-178q-183 -159 -449 -174q-22 -1 -45 -1q-239 0 -432 147
q-212 162 -273 418h-232l50 130h156q-4 61 0 122h-205l52 129h178q57 230 242.5 389t463.5 174z" />
    <glyph glyph-name="Bouquet" unicode="&#x2022;" horiz-adv-x="1439" 
d="M74 290q168 189 266.5 275.5t-30 308t-112.5 614.5q103 -35 151 -176q25 167 88 167q72 0 193 -222q132 138 191 138q78 0 33 -233q439 234 203 -146q296 18 296 -59q0 -62 -195 -186q203 -69 203 -121q0 -61 -273 -100q219 -111 219 -146q0 -42 -287 12
q196 -100 227 -203q-386 55 -522 163q-161 198 -514 -233q-137 30 -137 137v10zM992 570q124 126 -86 157q205 206 -75 175q92 190 -151 105q100 205 -117 141q-81 145 -231 85q185 -36 157 -173q124 0 128 -147q255 11 171 -251q212 -4 181 -221q102 60 23 129zM662 406
q100 -85 185 -121q-128 -32 -129.5 -115t81.5 -205.5t62 -363.5l-120 18q-4 206 -64 315.5t-69.5 212t54.5 259.5zM1021 228q106 -49 97.5 -159t-6.5 -206t72.5 -99t184.5 50q18 -47 -26.5 -75t51.5 -85q-68 -53 -227.5 -1.5t-140 221.5t-46.5 219.5t-235 92.5q38 63 120 85
q60 -24 156 -43zM748 608q78 320 -156 196q28 256 -154 181q40 195 -180 238q-4 -128 131 -385.5t316 -369.5t420 -179q-136 114 -207 146q39 188 -170 173zM432 661q6 -70 -20.5 -95t-100.5 -85.5t-199 -201.5q8 -47 21 -68q157 192 245.5 254t106.5 136zM766 289l-85 63
q-89 -212 -0.5 -355.5t92.5 -338.5l64 -15q-4 242 -77 333.5t-73 175.5t79 137zM875 239q-70 -7 -89 -39q171 -53 217.5 -85t46.5 -111.5t7 -204t284 -145.5q-89 57 -15 110q-201 -74 -226.5 20t-15 219.5t-44 168.5t-165.5 67zM577 1216q-75 185 -123 185q-36 0 -58 -97
q85 64 181 -88zM318 1276q-49 123 -67 123q-16 0 -1 -127q29 46 68 4zM929 956q294 334 -114 114q139 43 114 -114zM1067 441q238 -38 0 82q36 -43 0 -82zM1018 757q214 117 214 164q0 50 -250 21q171 -25 36 -185zM1057 601q202 26 202 60t-202 75q163 -64 0 -135z
M755 1070q152 398 -106 127q159 61 106 -127z" />
    <glyph glyph-name="EyesDollar" unicode="&#xb6;" horiz-adv-x="1295" 
d="M662 1493q67 0 73 -12q18 -14 25 -39l4 -167q116 0 260 -41q87 -32 93 -68q0 -83 -58 -86q-22 -9 -227 32l-72 3v-347q211 -15 327 -125q102 -105 102 -239q0 -81 -38 -174l-50 -72q-113 -124 -341 -173l-3 -250q-22 -41 -60 -47h-18q-46 0 -71 22l-12 32v234
q-163 9 -230 23q-91 21 -112 35q-105 46 -116 134q-8 49 14 80q15 16 41 23q46 3 75 -10l123 -83q85 -32 205 -37v483q-205 8 -313 99q-66 59 -78 145q-12 102 68 193q126 134 323 191l3 193q35 49 58 49q2 0 5 -1zM13 379l17 -2l30 -35l33 -12l-3 15l-19 22l-17 10l4 17
q24 8 49 -33l13 -41l36 -40q3 -25 -11 -25q-17 -4 -22 6l-44 49q-42 6 -69 51zM244 168h43l7 17v25l-33 24h-24l10 -15l-3 -19l-27 7l3 -19zM193 108q37 -5 46 10l-2 32l-24 25h-15q7 -19 0 -29q-27 -5 -35 12l4 -33zM760 156q127 41 187 108q30 38 52 107q7 87 -45 138
q-37 34 -85 57l-102 35h-7v-445zM585 782h11v303q-156 -48 -186 -172q-4 -36 7 -59q20 -42 168 -72z" />
    <glyph glyph-name="Frowny" unicode="&#xdf;" horiz-adv-x="1673" 
d="M1185 995q0 -18 -24 -53l-24 -14l-37 -16q-19 0 -56 24q-6 8 -14 23.5t-12 35.5q0 26 20 54l26 18l36 12q26 0 55 -24q12 -8 18 -24zM664 996q0 -22 -20 -54q-16 -11 -62 -29q-13 0 -62 24l-11 27l-13 32q0 10 10 30l13 24q9 10 63 30l28 -6q8 -3 14 -6.5t16 -11.5z
M1313 308q163 176 163 428q0 260 -184 447q-94 94 -204.5 140.5t-246.5 46.5q-259 0 -447 -186.5t-188 -447.5q0 -264 187 -451q25 -26 53 -48q421 503 814 18q15 14 29 28l19 19l4 14q1 -4 1 -8zM1247 245q-382 328 -790 -17q38 -30 78 -52q9 0 17 -1q-4 -1 -9 -4
q134 -72 298 -72q147 -7 250 43.5t156 102.5zM1594 736q0 -317 -221 -536t-531 -219q-315 0 -534.5 219t-219.5 536q0 303 219 527.5t535 224.5q306 0 529 -219.5t223 -532.5z" />
    <glyph glyph-name="NoChemicalCleaning" unicode="&#xae;" horiz-adv-x="1681" 
d="M810 1486h21q86 0 191 -22l125 -44q55 -24 148 -90l84 -74q74 -84 74 -97l14 -6l111 75l19 -29l-118 -81q81 -120 102 -285l7 -125q-4 -93 -34 -202q-23 -74 -72 -165l115 -72l-16 -31l-117 75h-7l-31 -50l-69 -78l-65 -55q-96 -62 -183 -100l-100 -30q-85 -21 -172 -21
q-104 0 -210 29l-109 41q-84 40 -143 84l-81 72l-84 108h-6l-112 -75l-19 28l109 72l6 9q-74 122 -99 286l-7 122q7 124 38 214q22 69 71 153l-118 74l16 32l118 -75l9 3q10 28 97 121q65 59 143 109l96 47q137 50 258 53zM832 755l19 6l491 314q6 13 -78 100
q-186 158 -389 171l-126 -3l-78 -16q-88 -32 -153 -65q-87 -63 -128 -103l-62 -77q0 -13 12 -17zM306 419l31 16l458 295h6v6l-485 305l-3 6h-7q-83 -162 -83 -276l3 -128l18 -84l32 -81zM1357 419q13 3 13 9q68 122 80 283q0 109 -24 197l-25 64l-38 75l-30 -16l-458 -295
h-6v-6l485 -305zM813 118q109 0 196 24q94 25 215 112l56 50l62 81q0 12 -12 15l-491 311l-20 -6l-491 -314q6 -25 78 -102q112 -93 199 -128q115 -37 208 -43z" />
    <glyph glyph-name="Smiley" unicode="&#xa9;" horiz-adv-x="1678" 
d="M1592 735q0 -317 -221 -535.5t-530 -218.5q-314 0 -533.5 218.5t-219.5 535.5q0 303 219 527t534 224q305 0 528 -219.5t223 -531.5zM1474 735q0 259 -184 446q-93 94 -204 140.5t-246 46.5q-259 0 -446.5 -186.5t-187.5 -446.5q0 -264 186 -450t448 -186t448 183.5
t186 452.5zM1183 993q0 -17 -23 -53l-24 -14l-37 -16q-19 0 -56 24q-6 9 -14 24.5t-12 34.5q0 26 20 54l25 19l37 11q25 0 54 -24q13 -8 19 -24zM663 994q0 -21 -20 -54q-16 -11 -62 -28q-13 0 -62 23l-11 27l-12 32q0 11 10 30l12 24q10 10 63 30l28 -6q9 -2 14.5 -5.5
t15.5 -12.5zM416 643q-35 -27 -46 -72q-28 175 167 109q-75 -5 -117 -34q423 -376 819 -29q-41 26 -109 30q194 66 166 -109q-10 46 -46 73q-180 -335 -383 -335q-213 0 -451 367z" />
    <glyph glyph-name="CircledA" unicode="&#x2122;" horiz-adv-x="1678" 
d="M850 1491q329 -15 531.5 -228t217.5 -525q-21 -355 -244.5 -553t-510.5 -203q-343 13 -551 240q-205 226 -205 515v5q12 315 229.5 531t532.5 218zM314 406l429 949q-352 -76 -473.5 -375t44.5 -574zM846 110q258 7 437 177l-150 339h-580l-153 -332q181 -183 446 -184z
M611 751h464l-231 519zM1372 404q166 276 43 579t-472 370z" />
    <glyph glyph-name="CleaningA" unicode="&#xb4;" horiz-adv-x="1665" 
d="M806 1486h20q86 0 191 -23q249 -68 414 -273q143 -190 152 -433v-21q0 -85 -21 -190l-44 -124q-93 -193 -240 -299q-198 -133 -425 -145q-122 3 -140 9q-109 24 -181 52l-96 50l-82 56q-261 223 -276 563l9 146q22 109 47 168q66 142 159 240q236 224 513 224zM809 117
q68 -3 187 22q99 28 211 106q112 87 174 214q56 118 65 252q0 153 -52 267q-29 63 -72 128q-84 99 -196 165q-115 65 -255 75q-78 3 -143 -7l-63 -12q-123 -47 -173 -82l-97 -76l-62 -72q-72 -113 -96 -200l-19 -126l3 -128l19 -84q38 -113 102 -203q87 -111 215 -174
q93 -50 252 -65zM728 1208h212l285 -817l-180 -3q-56 174 -62 174h-321l-61 -174h-169zM706 699h237l-109 351l-19 -40l-102 -302l-7 -6v-3z" />
    <glyph glyph-name="CleaningP" unicode="&#xa8;" horiz-adv-x="1689" 
d="M821 1488h20q86 0 191 -22q250 -68 415 -274q143 -189 152 -433v-21q0 -85 -21 -191l-44 -123q-93 -194 -240 -300q-199 -133 -426 -145q-122 3 -140 9q-110 24 -182 52l-96 50l-81 56q-262 224 -277 564l9 146q22 109 47 168q66 143 159 240q236 224 514 224zM824 118
q68 -3 187 22q99 28 212 106q111 87 174 214q56 119 65 253q0 153 -53 267q-28 63 -72 128q-84 100 -195 165q-116 65 -256 75q-78 4 -143 -7l-63 -12q-124 -46 -173 -81l-98 -77l-61 -72q-72 -113 -97 -200l-19 -127l3 -127l19 -84q38 -113 103 -203q87 -112 215 -175
q93 -49 252 -65zM590 1143l346 -3q234 -26 246 -215q6 -62 -12 -125q-16 -44 -44 -75q-118 -118 -362 -90v-315h-174v823zM764 776h131q84 12 101 90q12 123 -101 140h-131v-230z" />
    <glyph glyph-name="SoftHyphen" unicode="&#x2260;" 
 />
    <glyph glyph-name="Bicycle" unicode="&#xc6;" horiz-adv-x="2740" 
d="M2541 709q-18 32 -35 55.5t-37 43.5q-20 19 -42.5 38.5t-49 36t-54 29t-58 20t-57.5 11t-63 3.5h-44q-5 -3 -22 -3l-29 -6l-36 -9l-53 -20l219 -341q65 -18 65 -76q0 -26 -21 -48q-10 -9 -21.5 -14.5t-22.5 -5.5q-25 0 -46 16q-21 22 -21 36l-409 -52q0 -44 15.5 -87
t47.5 -91q73 -98 174.5 -153.5t224.5 -55.5q112 0 214 61q53 36 89 75q43 43 72 98q62 112 62 214q0 116 -62 225zM1920 877q-54 -25 -108 -86q-27 -26 -50 -66q-8 -10 -11.5 -17.5t-8.5 -20.5l-14 -37q-29 -82 -29 -180l414 49l18 29zM1733 1150l-165 -608q40 -16 69 -74
q0 66 15.5 127.5t46.5 118.5q59 114 191 207zM839 1164l553 -634q36 29 80 29h42l160 605h-835zM1602 452q-7 28 -45 54l-17 -63zM1501 524q-70 0 -85 -27l31 -36q21 7 39 7zM921 787l-26 27l-18 18q-12 13 -24 20.5t-29 17.5q-26 21 -43 27q-16 10 -26 10l-86 -231l-37 -90
l-29 -62q16 -23 16 -37q-2 -22 -19 -36q-21 -14 -37 -14q-18 0 -39 14l-11 17l-4 22q0 34 54 59q22 43 58 139.5t81 242.5q-38 8 -57.5 10t-72.5 2q-110 0 -216 -62t-159.5 -166t-53.5 -231q0 -62 15 -116.5t41 -104.5q64 -105 159 -166q53 -33 103.5 -48t101.5 -15
q43 0 110 16l60 20l52 26q114 65 173.5 168t59.5 231q0 166 -97 292zM1461 325q-7 0 -27 14q-18 15 -24 40l3 28v7l-35 43q-12 -12 -17 -27t-5 -36q0 -25 7 -45t30 -42q14 -11 43 -26l20 -4l26 -3h18q4 1 5 1q11 0 31 10q16 8 34 22q38 35 38 96l-49 -11q0 -23 -20 -50
q-9 -7 -27 -14l-29 -6zM1364 281q-45 48 -45 111v22l3 18l8 18l11 22l12 18l-543 611q-9 -34 -17 -66.5t-22 -74.5q71 -27 150 -103q36 -33 63 -73t49 -91q40 -100 40 -202q0 -68 -20 -135q-11 -35 -23 -65.5t-25 -53.5q-34 -57 -82.5 -101t-113.5 -82q-127 -72 -246 -72
q-61 0 -119 17t-115 51l-55 42q-19 14 -25 19q-11 10 -22 22q-48 44 -79 101l-27 55l-20 65l-9 33l-6 29v71q0 221 144.5 363.5t346.5 142.5q73 0 136 -14l65 228l34 191h-21q-125 0 -198.5 -35.5t-73.5 -101.5q0 -51 44 -83q47 -30 116 -30l-4 -47q-96 0 -154 44t-58 113
q0 196 409 196l-38 -230h857l42 142l-183 34v53l290 39l116 -11l1 -16v-11l-1 -29q0 -30 -33 -42q-38 -14 -133 -14l-41 -140l183 -283q53 26 103.5 37t104.5 11q69 0 135.5 -16.5t124.5 -49.5q123 -65 189 -190q36 -62 52.5 -124.5t16.5 -126.5q0 -120 -67.5 -241
t-181 -189t-240.5 -68q-143 0 -257 54q-57 31 -103.5 71.5t-84.5 99.5t-58 104l-9 27l-5 20l-4 25l-3 18q0 -74 -43 -123q-5 -4 -11.5 -10t-9.5 -8l-31 -15q-38 -15 -71 -15q-41 0 -75 21l-40 -59l57 -5v-29l-28 -4h-38l-57 4l-10 1v25l50 8l42 71z" />
    <glyph glyph-name="ironing" unicode="&#xd8;" horiz-adv-x="2168" 
d="M497 1219h1201l454 -1213v-6h-2152l31 92l70 151l40 67q83 117 141 172q77 71 166 132q46 31 194 98l107 34h977l-99 267l-1133 68zM203 138h1753l-178 470l-992 3q-129 -37 -221 -89q-95 -52 -206 -157q-80 -89 -101 -129l-55 -92v-6zM1096 476q68 0 95 -28
q49 -37 53 -98q0 -123 -126 -147q-40 0 -65 12q-77 40 -83 117q0 49 37 98q37 40 89 46z" />
    <glyph glyph-name="Ironing" unicode="&#x221e;" horiz-adv-x="2168" 
d="M497 1219h1201l454 -1213v-6h-2152l31 92l70 151l40 67q83 117 141 172q77 71 166 132q46 31 194 98l107 34h977l-99 267l-1133 68zM203 138h1753l-178 470l-992 3q-129 -37 -221 -89q-95 -52 -206 -157q-80 -89 -101 -129l-55 -92v-6zM1096 476q68 0 95 -28
q49 -37 53 -98q0 -123 -126 -147q-40 0 -65 12q-77 40 -83 117q0 49 37 98q37 40 89 46zM1434 476q67 0 95 -28q49 -37 52 -98q0 -123 -126 -147q-40 0 -64 12q-77 40 -83 117q0 49 37 98q37 40 89 46z" />
    <glyph glyph-name="IRONING" unicode="&#xb1;" horiz-adv-x="2168" 
d="M497 1219h1201l454 -1213v-6h-2152l31 92l70 151l40 67q83 117 141 172q77 71 166 132q46 31 194 98l107 34h977l-99 267l-1133 68zM203 138h1753l-178 470l-992 3q-129 -37 -221 -89q-95 -52 -206 -157q-80 -89 -101 -129l-55 -92v-6zM1096 476q68 0 95 -28
q49 -37 53 -98q0 -123 -126 -147q-40 0 -65 12q-77 40 -83 117q0 49 37 98q37 40 89 46zM1434 476q67 0 95 -28q49 -37 52 -98q0 -123 -126 -147q-40 0 -64 12q-77 40 -83 117q0 49 37 98q37 40 89 46zM758 476q68 0 96 -28q49 -37 52 -98q0 -123 -126 -147q-40 0 -65 12
q-76 40 -82 117q0 49 36 98q37 40 89 46z" />
    <glyph glyph-name="NoIroning" unicode="&#x2264;" horiz-adv-x="2168" 
d="M497 1219h1201l52 -141q6 -13 16 -3l346 227l19 -28l-359 -233l-6 -9l386 -1029l-98 -3l77 -49l-15 -31l-126 80h-1833l-120 -80l-19 28l77 52h-99l36 100l69 143l40 67q83 117 141 172q77 71 166 132q252 147 384 135l-814 522l16 31l866 -556h356l377 246l-6 21
l-1133 68zM1317 746h409l-80 212l-323 -209h-6v-3zM203 138h110l722 467l-249 6q-129 -37 -221 -89q-95 -52 -206 -157q-80 -89 -101 -129l-55 -92v-6zM375 138h1400l-697 452q-16 -4 -80 -47l-617 -402h-6v-3zM1836 138h120l-178 470h-663l3 -6l715 -458z" />
    <glyph glyph-name="MineSign" unicode="&#x2265;" horiz-adv-x="1829" 
d="M587 1482v-2h2v2h-2zM587 1488l156 -184v-8q-99 -71 -225 -193l366 -350l352 334l-4 7l-202 202l180 182l9 -4l204 -207l27 24l81 -82l-24 -29l87 -86l178 -358l-367 183l-79 79l-334 -347l134 -133l419 -399v-6q28 -19 12 -53q-31 -38 -83 -84l-21 -9q-23 3 -29 13
l-43 40l-474 493l-25 23l-528 -550l-20 -12q-14 -4 -27 0l-8 6q-7 -4 -9 2l-74 70l-11 30q-2 21 35 55l537 512l-349 362q-4 2 -54.5 -53.5t-136.5 -170.5l-8 1l-183 163q240 318 541 537z" />
    <glyph glyph-name="RewindToIndex" unicode="&#xa5;" horiz-adv-x="2736" 
d="M2649 0l-1105 634l1105 634v-1268zM1493 0l-1108 634l1108 638v-1272zM338 -5h-246v1277h246v-1277z" />
    <glyph glyph-name="RewindToStart" unicode="&#xb5;" horiz-adv-x="1588" 
d="M1495 0l-1108 634l1108 638v-1272zM340 -5h-246v1277h246v-1277z" />
    <glyph glyph-name="Rewind" unicode="&#x2202;" horiz-adv-x="1296" 
d="M1202 0l-1108 634l1108 638v-1272z" />
    <glyph glyph-name="Forward" unicode="&#x2211;" horiz-adv-x="1296" 
d="M94 1272l1108 -638l-1108 -634v1272z" />
    <glyph glyph-name="ForwardToEnd" unicode="&#x220f;" horiz-adv-x="1588" 
d="M94 1272l1108 -638l-1108 -634v1272zM1249 1272h246v-1277h-246v1277z" />
    <glyph glyph-name="ForwardToIndex" unicode="&#x3c0;" horiz-adv-x="2736" 
d="M92 1268l1105 -634l-1105 -634v1268zM1248 1272l1108 -638l-1108 -634v1272zM2403 1272h246v-1277h-246v1277z" />
    <glyph glyph-name="MoveUp" unicode="&#x222b;" horiz-adv-x="1364" 
d="M48 -2l634 1108l638 -1108h-1272z" />
    <glyph glyph-name="MoveDown" unicode="&#xaa;" horiz-adv-x="1364" 
d="M1320 1106l-638 -1108l-634 1108h1272z" />
    <glyph glyph-name="ToTop" unicode="&#xba;" horiz-adv-x="1412" 
d="M72 -2l634 1108l638 -1108h-1272zM67 1153v246h1277v-246h-1277z" />
    <glyph glyph-name="ToBottom" unicode="&#x3a9;" horiz-adv-x="1412" 
d="M1344 1399l-638 -1108l-634 1108h1272zM1344 244v-246h-1277v246h1277z" />
    <glyph glyph-name="CleaningF" unicode="&#xe6;" horiz-adv-x="1660" 
d="M818 1491h20q86 0 191 -23q250 -68 415 -274q143 -189 152 -433v-21q0 -85 -21 -191l-44 -123q-93 -194 -240 -299q-199 -134 -426 -146q-122 3 -140 9q-110 24 -182 52l-96 50l-81 56q-262 224 -277 564l9 146q22 109 47 168q66 143 159 240q236 225 514 225zM821 120
q68 -3 187 22q99 28 212 106q111 87 174 214q56 119 65 253q0 153 -53 267q-28 63 -72 128q-84 100 -195 166q-116 64 -256 75q-78 3 -143 -8l-63 -12q-124 -46 -173 -81l-98 -77l-61 -72q-72 -112 -97 -200l-19 -126l3 -128l19 -84q38 -113 103 -203q87 -112 215 -175
q93 -49 252 -65zM615 1145h533v-137h-358v-197h333v-137h-333v-352h-175v823z" />
    <glyph glyph-name="CleaningFF" unicode="&#xf8;" horiz-adv-x="1654" 
d="M811 1488h20q85 0 191 -22q249 -68 414 -273q142 -190 151 -433v-21q0 -85 -21 -190l-43 -124q-93 -193 -240 -298q-199 -134 -425 -146q-122 3 -140 9q-110 24 -181 53l-97 49l-81 56q-261 224 -276 563l9 146q22 109 47 168q65 142 159 240q236 223 513 223zM814 121
q68 -4 186 21q99 28 212 106q111 87 174 214q56 118 65 252q0 153 -53 267q-28 63 -72 128q-84 99 -195 165q-116 64 -255 75q-78 3 -143 -8l-63 -12q-123 -46 -173 -81l-97 -77l-62 -71q-72 -113 -96 -200l-19 -126l3 -128l19 -84q37 -112 102 -203q87 -111 215 -174
q93 -49 252 -64zM83 -85h1504v-139h-1504v139zM608 1143h532v-137h-357v-196h333v-137h-333v-351h-175v821z" />
    <glyph glyph-name="Sun" unicode="&#xbf;" horiz-adv-x="1724" 
d="M735 1465q59 8 115 8q263 0 486 -165q243 -200 272 -458q4 -55 4 -106q0 -149 -33 -266q-185 -444 -600 -501q-59 -7 -115 -7q-263 0 -487 164q-243 201 -272 458q-7 57 -7 113q0 263 164 488q201 244 473 272zM936 91q285 -43 429 315q14 301 -215 659
q-186 229 -387 300q-272 14 -400 -315q-29 -129 57 -386q129 -287 201 -344q185 -186 315 -229zM793 836q128 28 186 -72q13 -157 -86 -186q-143 -14 -173 86q-28 114 73 172z" />
    <glyph glyph-name="Moon" unicode="&#xa1;" horiz-adv-x="1599" 
d="M630 1470q30 1 59 1q667 0 815 -621q1 -28 1 -55q0 -643 -635 -805q-54 -3 -103 -3q-145 0 -250 31v3q226 124 296 363q82 642 -522 706l-197 -43l-3 2q158 351 539 421zM672 46l-1 -3q284 17 452 200q134 155 170 353q28 578 -564 734q-297 41 -550 -212l1 -3
q337 87 520 -11q268 -184 311 -423q27 -395 -339 -635z" />
    <glyph glyph-name="Mercury" unicode="&#xac;" horiz-adv-x="917" 
d="M78 1498q146 -292 453 -292q132 29 220 117l73 146q-44 -234 -220 -336q212 -125 212 -323q0 -35 -7 -72q-58 -176 -248 -278v-234h175v-59h-175v-176h-176v176h-176v59h176v248q-132 29 -205 132l-58 146q-30 249 190 381q-117 43 -176 160zM487 518q147 -15 191 146
v132q-59 205 -234 307q-117 44 -191 -146q-29 -263 234 -439z" />
    <glyph glyph-name="Venus" unicode="&#x221a;" horiz-adv-x="1066" 
d="M260 1201q-14 -198 85 -353q70 -99 198 -156q201 -34 240 198q0 354 -296 495q-156 28 -227 -184zM430 1470q29 2 57 2q360 0 465 -341q8 -66 8 -124q0 -388 -360 -413v-297h211v-57h-211v-240h-185v240h-197v57h197v325q-326 118 -326 430q0 25 2 51q85 296 339 367z
" />
    <glyph glyph-name="Mars" unicode="&#x192;" horiz-adv-x="1813" 
d="M551 1152q365 28 548 -182l308 267l-295 27l576 197h42l-252 -618l-15 324l-308 -254v-42q182 -252 42 -574q-155 -267 -421 -309q-41 -4 -80 -4q-219 0 -397 130q-182 140 -211 351q-2 29 -2 57q0 498 465 630zM720 86q267 -28 337 239q13 281 -141 505
q-113 153 -295 224q-196 56 -309 -238q-27 -491 408 -730z" />
    <glyph glyph-name="Jupiter" unicode="&#x2248;" horiz-adv-x="1182" 
d="M138 1160q57 239 296 310q23 1 44 1q339 0 379 -212q42 -155 -84 -367l-142 -169l-380 -367h437l14 227l141 140v-367h239v-55h-239v-296h-155v296h-592l465 563q253 338 -56 478q-212 29 -367 -182z" />
    <glyph glyph-name="Saturn" unicode="&#x394;" horiz-adv-x="1267" 
d="M396 1467h216v-201h461v-57h-461v-447q138 260 346 216q190 -41 201 -201q2 -28 2 -55q0 -508 -793 -766h-102q460 148 649 489q72 130 72 317l-43 101l-44 29q-72 15 -158 -43q-87 -101 -130 -274h-216v634h-288v57h288v201z" />
    <glyph glyph-name="Saturn" unicode="&#x2206;" horiz-adv-x="1267" 
d="M396 1467h216v-201h461v-57h-461v-447q138 260 346 216q190 -41 201 -201q2 -28 2 -55q0 -508 -793 -766h-102q460 148 649 489q72 130 72 317l-43 101l-44 29q-72 15 -158 -43q-87 -101 -130 -274h-216v634h-288v57h288v201z" />
    <glyph glyph-name="Uranus" unicode="&#xab;" horiz-adv-x="1085" 
d="M99 858q144 332 0 607l129 -15l73 -245l173 -15v288h159v-288h174q36 283 147 283q18 0 40 -8q-159 -303 14 -607h-115q-101 188 -86 260l-174 14v-360q332 -87 318 -462q-72 -275 -318 -318q-30 -2 -57 -2q-315 0 -434 305q-14 173 29 274q116 188 303 216v347h-173
l-87 -274h-115zM590 79q144 -15 202 158q28 318 -289 476q-116 29 -202 -172q0 -333 289 -462z" />
    <glyph glyph-name="Neptune" unicode="&#xbb;" horiz-adv-x="1365" 
d="M516 1238l156 227l185 -199v-28l-99 15v-526q270 -42 283 85v441l-99 -15l157 227l184 -212h-99v-469q-29 -99 -128 -142h-298v-340h227v-58h-227v-255h-142v255h-227v58h227v340l-327 14q-71 14 -99 143v454l-100 -15l156 227l185 -199v-28l-99 15v-441l71 -85h213v526z
" />
    <glyph glyph-name="Pluto" unicode="&#x2026;" horiz-adv-x="1091" 
d="M61 1052l56 11q89 -334 399.5 -360t445.5 344l56 -14q-56 -350 -395 -423v-353h197v-56h-197v-198h-155v198h-198v56h198v366q-343 60 -407 429zM468 1470q38 6 73 6q229 0 351 -259q42 -325 -255 -424q-352 -14 -424 268q-41 340 255 409zM563 888q156 -39 166.5 167.5
t-171 299t-190 -142t194.5 -324.5z" />
    <glyph glyph-name="Earth" unicode="&#xa0;" horiz-adv-x="1073" 
d="M805 268q14 199 -85 355q-71 99 -198 156q-202 35 -242 -199q0 -354 298 -496q156 -28 227 184zM635 -1q-29 -2 -57 -2q-362 0 -467 342q-8 66 -8 124q0 390 361 415v297h-212v57h212v242h185v-242h198v-57h-198v-325q328 -119 328 -432q0 -25 -2 -51q-85 -297 -340 -368
z" />
    <glyph glyph-name="Bleech" unicode="&#xc0;" horiz-adv-x="1672" 
d="M835 1406l813 -1406l-1624 -3zM150 68h1376l-7 18l-678 1170l-3 12l-688 -1194v-6z" />
    <glyph glyph-name="NoBleech" unicode="&#xc3;" horiz-adv-x="1680" 
d="M839 765l27 12l182 120h6l-209 359l-3 12l-212 -365v-6zM154 68h1376l-19 39l-172 298l-494 317l-19 -7l-482 -310l-190 -331v-6zM1290 476h6l-221 381l-3 12l-190 -123h-6v-6l411 -258zM387 476l31 15l384 249h6v6l-193 123l-7 -3l-214 -381l-7 -3v-6zM841 1403
l265 -457l9 -10l461 295l18 -27l-436 -280l-28 -18l295 -516l169 -104l-15 -31l-114 70l187 -328h-1624l187 325h-6l-101 -67l-18 27l156 102l15 18l292 507l-463 292l15 30l460 -291q10 -4 34 46z" />
    <glyph glyph-name="ComputerMouse" unicode="&#xd5;" horiz-adv-x="1423" 
d="M10 1033l55 -7q-31 -477 349 -201l297 192q103 61 174 61q143 0 162 -239h301v-846h-660v846h305q-4 182 -113 182q-67 0 -171 -67l-278 -182q-423 -273 -423 196q0 31 2 65zM789 94h463v650h-463v-650zM829 703h146v-286h-146v286zM1065 703h142v-286h-142v286z" />
    <glyph glyph-name="SerialInterface" unicode="&#x152;" horiz-adv-x="1872" 
d="M39 730h1795v-737h-1795v737zM123 76h1626v566h-1626v-566zM201 608h87v-492h-87v492zM1286 608q120 -3 182.5 -85t59.5 -162q4 -103 -68.5 -177t-176.5 -69q-100 -3 -175 69.5t-73 175.5q-2 107 76.5 179.5t174.5 68.5zM591 199q62 5 103.5 38.5t55.5 117.5
q0 55 -39 108t-120 55q-52 5 -106 -37.5t-54 -122.5q0 -65 45 -110t115 -49zM895 608h83v-492h-83v492zM1589 608h83v-492h-83v492zM1283 202q63 4 104.5 38t55.5 118q0 55 -39 107.5t-121 55.5q-51 4 -105 -38.5t-54 -122.5q0 -65 45 -110t114 -48zM593 609
q120 -3 182.5 -84.5t60.5 -162.5q3 -103 -69.5 -176.5t-175.5 -69.5q-100 -3 -175.5 69.5t-73.5 175.5q-2 107 76.5 179.5t174.5 68.5z" />
    <glyph glyph-name="Keyboard" unicode="&#x153;" horiz-adv-x="1872" 
d="M200 240h83v-84h-83v84zM200 406h83v-87h-83v87zM200 569h83v-87h-83v87zM363 240h87v-84h-87v84zM363 406h87v-87h-87v87zM363 569h87v-87h-87v87zM525 240h88v-84h-88v84zM525 406h88v-87h-88v87zM525 569h88v-87h-88v87zM688 240h87v-84h-87v84zM688 406h87v-87h-87
v87zM688 569h87v-87h-87v87zM850 240h88v-84h-88v84zM850 406h88v-87h-88v87zM850 569h88v-87h-88v87zM1013 240h87v-84h-87v84zM1013 406h87v-87h-87v87zM1013 569h87v-87h-87v87zM1179 240h84v-84h-84v84zM1179 406h84v-87h-84v87zM1179 569h84v-87h-84v87zM1382 240h83
v-84h-83v84zM1382 406h83v-87h-83v87zM1545 240h87v-84h-87v84zM1545 406h87v-87h-87v87zM121 645v-568h1626v568h-1626zM137 938l47 -4q-55 -170 472 -107q330 53 635 75q399 18 372 -170h171v-739h-1796v739h1578q19 109 -202 127q-301 -13 -853 -83q-461 -50 -424 162z
" />
    <glyph glyph-name="SerialPort" unicode="&#x2013;" horiz-adv-x="1872" 
d="M39 730h1793v-737h-1793v737zM126 81h1622v566h-1622v-566zM407 494v-89h1057v87l245 -126l-245 -126v79h-1053l-2 -79l-251 127z" />
    <glyph glyph-name="ParallelPort" unicode="&#x2014;" horiz-adv-x="1872" 
d="M40 730h1793v-737h-1793v737zM123 81h158l-119 242h79v79l-82 1l122 244h-158v-566zM289 81h317l-119 242h79v79l-79 1l123 244h-321l119 -245h-80v-79l80 1zM613 81h317l-119 242h83v79l-84 1l124 244h-321l119 -245h-79v-79l81 1zM942 81h312l-118 242h83v79l-85 1
l125 244h-317l119 -245h-83v-79l82 1zM1266 81h313l-119 242h84v79l-84 1l123 244h-317l119 -245h-83v-79l79 1zM1591 81h155v566h-155l119 -245h-79v-79l76 1z" />
    <glyph glyph-name="Printer" unicode="&#x201c;" horiz-adv-x="1872" 
d="M258 1266q176 -190 602 -34q169 62 315 62q223 0 392 -143l2 -415h265v-739h-1796v739h222zM126 78h1626v567h-179v-182h104v-44h-1472v44h59v182h-138v-567zM200 246h84v-88h-84v88zM306 470h1216v659q-140 117 -338 117q-139 0 -308 -58q-409 -141 -570 -9v-709z
M1421 1083v-45l-324 -1v46h324zM1421 958v-45l-324 -1v46h324zM403 797h1023v-47h-1023v47zM403 674h1023v-47h-1023v47zM403 551h1023v-43h-1023v43z" />
    <glyph glyph-name="AtNinetyFive" unicode="&#x201d;" horiz-adv-x="2784" 
d="M6 1276h216l26 -80l93 -3l148 -26l9 -6q10 6 126 -42q96 -55 170 -84l103 -29q96 -13 170 -13l116 13l84 26l125 61q52 39 145 68l125 22q84 7 155 0q73 -6 189 -42l209 -99l77 -26q139 -32 177 -29l87 289h215l-382 -1279h-2000l-383 1273v6zM540 212h1698l215 714v6
q-109 7 -193 33l-128 51q-129 71 -184 87l-148 25q-115 4 -196 -9l-9 -7l-45 -6l-90 -35l-7 -10l-42 -16q-99 -58 -154 -77l-96 -23q-87 -9 -187 -6l-125 19l-74 23l-200 96l-115 39l-116 19l-80 3zM1087 916q212 20 228 -247q10 -68 -35 -222q-49 -87 -126 -100
q-202 -16 -225 126v19h74q7 -64 68 -80q93 -13 135 41q16 29 38 174v10l-61 -62q-45 -19 -100 -16q-128 16 -154 139q7 212 158 218zM1090 621q51 -7 106 28l32 71q0 45 -16 81q-22 28 -71 51q-58 3 -103 -23q-22 -22 -38 -73q0 -62 26 -97q12 -16 64 -38zM1434 894h315v-58
h-235l-6 -19l-7 -148l52 35q106 26 161 -16q58 -45 64 -145q-6 -83 -16 -99q-42 -87 -126 -100q-186 -3 -215 125v26h74q3 -42 45 -74q16 -13 71 -16q35 7 61 29l29 68q6 125 -81 151q-57 3 -67 -7q-42 -25 -48 -67h-74z" />
    <glyph glyph-name="ShortNinetyfive" unicode="&#x2018;" horiz-adv-x="2784" 
d="M1067 -106h643v-216h-643v216zM6 1276h216l26 -80l93 -3l148 -26l9 -6q10 6 126 -42q96 -55 170 -84l103 -29q96 -13 170 -13l116 13l84 26l125 61q52 39 145 68l125 22q84 7 155 0q73 -6 189 -42l209 -99l77 -26q139 -32 177 -29l87 289h215l-382 -1279h-2000l-383 1273
v6zM540 212h1698l215 714v6q-109 7 -193 33l-128 51q-129 71 -184 87l-148 25q-115 4 -196 -9l-9 -7l-45 -6l-90 -35l-7 -10l-42 -16q-99 -58 -154 -77l-96 -23q-87 -9 -187 -6l-125 19l-74 23l-200 96l-115 39l-116 19l-80 3zM1087 916q212 20 228 -247q10 -68 -35 -222
q-49 -87 -126 -100q-202 -16 -225 126v19h74q7 -64 68 -80q93 -13 135 41q16 29 38 174v10l-61 -62q-45 -19 -100 -16q-128 16 -154 139q7 212 158 218zM1090 621q51 -7 106 28l32 71q0 45 -16 81q-22 28 -71 51q-58 3 -103 -23q-22 -22 -38 -73q0 -62 26 -97q12 -16 64 -38
zM1434 894h315v-58h-235l-6 -19l-7 -148l52 35q106 26 161 -16q58 -45 64 -145q-6 -83 -16 -99q-42 -87 -126 -100q-186 -3 -215 125v26h74q3 -42 45 -74q16 -13 71 -16q35 7 61 29l29 68q6 125 -81 151q-57 3 -67 -7q-42 -25 -48 -67h-74z" />
    <glyph glyph-name="AtSixty" unicode="&#x2019;" horiz-adv-x="2768" 
d="M6 1276h216l26 -80l93 -3l148 -26l9 -6q10 6 126 -42q96 -55 170 -84l103 -29q96 -13 170 -13l116 13l84 26l125 61q52 39 145 68l125 22q84 7 155 0q73 -6 189 -42l209 -99l77 -26q139 -32 177 -29l87 289h212v-19l-379 -1260h-2000l-383 1273v6zM540 212h1698l215 714
v6q-109 7 -193 33l-128 51q-129 71 -184 87l-148 25q-115 4 -196 -9l-9 -7l-45 -6l-90 -35l-7 -10l-42 -16q-99 -58 -154 -77l-96 -23q-87 -9 -187 -6l-125 19l-74 23l-200 96l-115 39l-116 19l-80 3zM984 801q45 96 132 115q199 10 215 -112v-29h-74q-19 116 -157 64
q-49 -45 -78 -167v-26l55 55q51 22 109 22q94 -16 106 -45q45 -41 52 -99q13 -203 -180 -225l-71 6q-116 23 -141 203q-7 61 13 170q10 51 19 68zM1128 418q71 -6 107 26l38 80q10 97 -83 135q-110 19 -158 -93q-6 -58 26 -106q-3 -7 70 -42zM1611 920q196 -4 222 -229
q9 -161 -49 -254q-45 -67 -144 -83q-113 3 -171 83q-48 77 -48 171q-10 286 190 312zM1601 418q138 -16 167 203q4 96 -32 167q-22 38 -87 67q-74 3 -112 -48q-19 -23 -45 -125l3 -113q13 -64 42 -103q13 -16 64 -48z" />
    <glyph glyph-name="ShortSixty" unicode="&#xf7;" horiz-adv-x="2784" 
d="M6 1276h216l26 -80l93 -3l148 -26l9 -6q10 6 126 -42q96 -55 170 -84l103 -29q96 -13 170 -13l116 13l84 26l125 61q52 39 145 68l125 22q84 7 155 0q73 -6 189 -42l209 -99l77 -26q139 -32 177 -29l87 289h212v-19l-379 -1260h-2000l-383 1273v6zM540 212h1698l215 714
v6q-109 7 -193 33l-128 51q-129 71 -184 87l-148 25q-115 4 -196 -9l-9 -7l-45 -6l-90 -35l-7 -10l-42 -16q-99 -58 -154 -77l-96 -23q-87 -9 -187 -6l-125 19l-74 23l-200 96l-115 39l-116 19l-80 3zM984 801q45 96 132 115q199 10 215 -112v-29h-74q-19 116 -157 64
q-49 -45 -78 -167v-26l55 55q51 22 109 22q94 -16 106 -45q45 -41 52 -99q13 -203 -180 -225l-71 6q-116 23 -141 203q-7 61 13 170q8 46 19 68zM1128 418q71 -6 107 26l38 80q10 97 -83 135q-110 19 -158 -93q-6 -58 26 -106q-3 -7 70 -42zM1611 920q196 -4 222 -229
q9 -161 -49 -254q-45 -67 -144 -83q-113 3 -171 83q-48 77 -48 171q-10 286 190 312zM1601 418q138 -16 167 203q4 96 -32 167q-22 38 -87 67q-74 3 -112 -48q-19 -23 -45 -125l3 -113q13 -64 42 -103q13 -16 64 -48zM1067 -106h643v-216h-643v216z" />
    <glyph glyph-name="ShortFifty" unicode="&#x25ca;" horiz-adv-x="2784" 
d="M6 1276h216l26 -80l93 -3l148 -26l9 -6q10 6 126 -42q96 -55 170 -84l103 -29q96 -13 170 -13l116 13l84 26l125 61q52 39 145 68l125 22q84 7 155 0q73 -6 189 -42l209 -99l77 -26q139 -32 177 -29l87 289h212v-19l-379 -1260h-2000l-383 1273v6zM540 212h1698l215 714
v6q-109 7 -193 33l-128 51q-129 71 -184 87l-148 25q-115 4 -196 -9l-9 -7l-45 -6l-90 -35l-7 -10l-42 -16q-99 -58 -154 -77l-96 -23q-87 -9 -187 -6l-125 19l-74 23l-200 96l-115 39l-116 19l-80 3zM1067 -106h643v-216h-643v216zM990 903h315v-57h-234l-7 -20l-6 -148
l51 36q106 25 161 -16q58 -45 64 -145q-6 -84 -16 -100q-42 -86 -125 -99q-187 -4 -216 125v26h74q4 -42 45 -74q16 -13 71 -16q35 6 61 29l29 67q7 126 -80 151q-58 4 -68 -6q-42 -26 -48 -68h-74zM1624 920q196 -4 221 -229q10 -161 -48 -254q-45 -67 -144 -83
q-113 3 -171 83q-48 77 -48 171q-10 286 190 312zM1614 418q138 -16 167 203q3 96 -32 167q-23 38 -87 67q-74 3 -112 -48q-20 -23 -45 -125l3 -113q13 -64 42 -103q13 -16 64 -48z" />
    <glyph glyph-name="AtForty" unicode="&#xff;" horiz-adv-x="2784" 
d="M6 1276h216l26 -80l93 -3l148 -26l9 -6q10 6 126 -42q96 -55 170 -84l103 -29q96 -13 170 -13l116 13l84 26l125 61q52 39 145 68l125 22q84 7 155 0q73 -6 189 -42l209 -99l77 -26q139 -32 177 -29l87 289h212v-19l-379 -1260h-2000l-383 1273v6zM540 212h1698l215 714
v6q-109 7 -193 33l-128 51q-129 71 -184 87l-148 25q-115 4 -196 -9l-9 -7l-45 -6l-90 -35l-7 -10l-42 -16q-99 -58 -154 -77l-96 -23q-87 -9 -187 -6l-125 19l-74 23l-200 96l-115 39l-116 19l-80 3zM1167 900h93v-341h103v-61h-103v-135h-70v135h-254v74zM1003 559h187
v264l-16 -16l-161 -238l-10 -3v-7zM1611 916q196 -3 222 -228q9 -161 -49 -254q-45 -67 -144 -84q-113 4 -171 84q-48 77 -48 170q-10 287 190 312zM1601 415q138 -16 167 202q4 97 -32 167q-22 39 -87 68q-74 3 -112 -48q-19 -23 -45 -126l3 -112q13 -64 42 -103
q13 -16 64 -48z" />
    <glyph glyph-name="ShortForty" unicode="&#x178;" horiz-adv-x="2784" 
d="M6 1276h216l26 -80l93 -3l148 -26l9 -6q10 6 126 -42q96 -55 170 -84l103 -29q96 -13 170 -13l116 13l84 26l125 61q52 39 145 68l125 22q84 7 155 0q73 -6 189 -42l209 -99l77 -26q139 -32 177 -29l87 289h212v-19l-379 -1260h-2000l-383 1273v6zM540 212h1698l215 714
v6q-109 7 -193 33l-128 51q-129 71 -184 87l-148 25q-115 4 -196 -9l-9 -7l-45 -6l-90 -35l-7 -10l-42 -16q-99 -58 -154 -77l-96 -23q-87 -9 -187 -6l-125 19l-74 23l-200 96l-115 39l-116 19l-80 3zM1167 900h93v-341h103v-61h-103v-135h-70v135h-254v74zM1003 559h187
v264l-16 -16l-161 -238l-10 -3v-7zM1611 916q196 -3 222 -228q9 -161 -49 -254q-45 -67 -144 -84q-113 4 -171 84q-48 77 -48 170q-10 287 190 312zM1601 415q138 -16 167 202q4 97 -32 167q-22 39 -87 68q-74 3 -112 -48q-19 -23 -45 -126l3 -112q13 -64 42 -103
q13 -16 64 -48zM1067 -106h643v-216h-643v216z" />
    <glyph glyph-name="SpecialForty" unicode="&#x2044;" horiz-adv-x="2784" 
d="M6 1276h216l26 -80l93 -3l148 -26l9 -6q10 6 126 -42q96 -55 170 -84l103 -29q96 -13 170 -13l116 13l84 26l125 61q52 39 145 68l125 22q84 7 155 0q73 -6 189 -42l209 -99l77 -26q139 -32 177 -29l87 289h212v-19l-379 -1260h-2000l-383 1273v6zM540 212h1698l215 714
v6q-109 7 -193 33l-128 51q-129 71 -184 87l-148 25q-115 4 -196 -9l-9 -7l-45 -6l-90 -35l-7 -10l-42 -16q-99 -58 -154 -77l-96 -23q-87 -9 -187 -6l-125 19l-74 23l-200 96l-115 39l-116 19l-80 3zM1167 900h93v-341h103v-61h-103v-135h-70v135h-254v74zM1003 559h187
v264l-16 -16l-161 -238l-10 -3v-7zM1611 916q196 -3 222 -228q9 -161 -49 -254q-45 -67 -144 -84q-113 4 -171 84q-48 77 -48 170q-10 287 190 312zM1601 415q138 -16 167 202q4 97 -32 167q-22 39 -87 68q-74 3 -112 -48q-19 -23 -45 -126l3 -112q13 -64 42 -103
q13 -16 64 -48zM431 -106h640v-216h-640v216zM1707 -106h640v-216h-640v216z" />
    <glyph glyph-name="ShortThirty" unicode="&#x20ac;" horiz-adv-x="2784" 
d="M6 1276h216l26 -80l93 -3l148 -26l9 -6q10 6 126 -42q96 -55 170 -84l103 -29q96 -13 170 -13l116 13l84 26l125 61q52 39 145 68l125 22q84 7 155 0q73 -6 189 -42l209 -99l77 -26q139 -32 177 -29l87 289h212v-19l-379 -1260h-2000l-383 1273v6zM540 212h1698l215 714
v6q-109 7 -193 33l-128 51q-129 71 -184 87l-148 25q-115 4 -196 -9l-9 -7l-45 -6l-90 -35l-7 -10l-42 -16q-99 -58 -154 -77l-96 -23q-87 -9 -187 -6l-125 19l-74 23l-200 96l-115 39l-116 19l-80 3zM1067 -106h643v-216h-643v216zM958 775q0 77 52 112q41 26 112 39
q32 6 100 -13q90 -35 93 -125q0 -42 -13 -68q-22 -48 -71 -71q119 -41 84 -186q-42 -100 -174 -106q-80 0 -135 42q-38 32 -64 103v19h74q35 -93 112 -97q52 -6 81 16q13 7 42 68l-4 51q-28 45 -70 52l-84 6v58q119 -6 151 90q3 68 -87 100q-54 6 -86 -13q-36 -26 -49 -77
h-64zM1604 926q196 -3 222 -228q10 -161 -48 -254q-45 -68 -145 -84q-112 3 -170 84q-48 77 -48 170q-10 286 189 312zM1595 424q138 -16 167 203q3 96 -32 167q-23 39 -87 68q-74 3 -113 -49q-19 -22 -45 -125l4 -113q12 -64 41 -102q13 -16 65 -49z" />
    <glyph glyph-name="HandWash" unicode="&#x2039;" horiz-adv-x="2784" 
d="M1740 1186l8 68q10 154 -20 250q-168 -4 -292 76l-135 -159q-148 -212 -214 -426l96 11l84 26l125 61q52 39 145 68l125 22q40 3 78 3zM1071 939l-4 -16v-29l57 48q-26 -2 -53 -3zM1810 1184q4 -1 7 -1q73 -6 189 -42l209 -99l77 -26q139 -32 177 -29l87 289h212v-19
l-379 -1260h-2000l-383 1273v6h216l26 -80l93 -3l148 -26l9 -6q10 6 126 -42q96 -55 170 -84l103 -29q67 -9 123 -12q3 12 6 25l45 122l35 81l10 9q0 23 119 203l99 128l23 23l75 63l80 -28q156 -48 276 -40q48 -169 22 -396zM1803 1128q-10 -65 -25 -135l-10 -19l-9 -55
l-7 -9l-6 -39l-55 -157q-35 -87 -61 -123q-38 -48 -55 -45q-16 -6 -41 13q0 13 -13 16q-61 -112 -113 -112l-32 16l-10 19q4 -13 -51 -67q-32 -16 -51 -7q-39 20 -29 119q-23 -38 -71 -38q-26 0 -39 41q-3 45 10 116l39 177l6 61l-90 -74q-71 -29 -87 36q-6 14 6 76
q-17 0 -35 1l-125 19l-74 23l-200 96l-115 39l-116 19l-80 3l276 -926h1698l215 714v6q-109 7 -193 33l-128 51q-129 71 -184 87zM1732 1129q-72 -1 -128 -10l-9 -7l-45 -6l-90 -35l-7 -10l-42 -16q-99 -58 -154 -77l-24 -6q9 -12 11 -33q6 -6 -13 -125l-32 -145l-10 -64
q6 0 29 38q74 180 99 299l65 -16l-55 -231q-32 -148 -26 -161l26 39q61 144 116 366q10 6 67 -13q-77 -302 -77 -350l55 87q55 138 87 289l67 -16l-9 -32l-42 -209v-16q19 16 64 148q39 118 45 173l6 7l-3 6l13 39l16 83v4z" />
    <glyph glyph-name="NoWash" unicode="&#x203a;" horiz-adv-x="2788" 
d="M19 1299l45 -23h158l26 -80l93 -3l148 -26l9 -6l36 -7l103 -42q128 -74 231 -99q122 -23 158 -20q83 0 157 13l68 20l106 48l6 9l103 52l74 26q10 -4 35 9l90 13q164 10 277 -22l109 -39l142 -71l64 -22l270 145l29 102h161l42 23l25 -48l-25 -20l-364 -1208l389 -209
l-25 -52l-438 235h-1868l-430 -235l-27 54l387 207l-364 1212l-27 17zM1386 563l13 3q630 347 787 424l-16 13l-154 74q-81 35 -216 51q-115 4 -196 -9l-9 -7l-45 -6l-90 -35l-7 -10l-42 -16q-99 -58 -154 -77l-96 -23q-87 -9 -187 -6l-125 19l-74 23l-200 96h-9
q-97 48 -238 58l1048 -563zM540 212l206 3l566 309l13 3v7l-1029 549l-16 13h-4zM862 212h1054l-51 32q-441 229 -473 254l-530 -283v-3zM2038 212l203 3l212 711v6q-141 13 -180 33q-22 3 -32 -7l-775 -421l-13 -3v-7l563 -299zM2447 987l25 3l29 97v9l-164 -86
q4 -10 23 -10z" />
    <glyph glyph-name="Recycling" unicode="&#xfb01;" horiz-adv-x="1807" 
d="M99 822l146 -85l-17 -34l-101 -170l-2 -44q7 -25 19 -43l176 -291v-3q14 63 25 72l197 341l147 -85l12 -6l-207 336l-379 12h-16zM1180 772l10 -23l206 -356h212q42 6 72 37q14 11 23 55q3 55 -19 99l-204 360l-9 -3q-117 -71 -291 -169zM1003 203l14 -30l172 -312l1 -7
l4 169h233l33 16q31 28 32 38l155 288l8 11v3l-20 -7q-36 -8 -67 -5h-378l2 184l-8 -11l-175 -329zM793 1440l34 -33l21 -34l186 -330l-152 -89l-6 -5l393 14l203 331l3 2v3l-145 -84l-113 200q-37 35 -68 35zM398 1008l1 -6l295 -172h3l213 379l-1 6l-98 167q-39 58 -91 56
q-62 2 -119 -77l-200 -352zM348 159q-3 -40 8 -68q23 -38 77 -54l41 -9l88 -2h330l3 324v23l-438 -1l-96 -168zM774 406q-26 9 -226 127l-76 -134v-1l446 1l-3 -397l-452 1q-39 3 -73 20l-29 22l-19 25l-6 14q-6 1 -57 89l-169 281l-9 40q0 42 14 69l94 168l-201 119
l500 -16zM1214 652l1 -259h153l-221 387l339 197l220 -383q23 -51 23 -91q0 -42 -12 -63l-11 -16l-206 -379q-32 -39 -67 -47h-215l-3 -6v-233l-238 439q-3 3 12 31zM1113 1474l59 -2l46 -22q16 -12 27 -32l94 -166l5 -3l202 118l-264 -432l-457 -14h-45l223 130l-77 133
l-6 -6l-217 -382l-336 198l213 379q58 81 117 88z" />
    <glyph glyph-name="PackingWaste" unicode="&#xfb02;" horiz-adv-x="1586" 
d="M143 363v-1h1v1h-1zM144 360v-1h2v1h-2zM572 34v-1h3v1h-3zM577 33v-2h3v2h-3zM583 31v-1h2v1h-2zM590 30v-2h1v2h-1zM596 28v-1h1v1h-1zM602 27v-2h1v2h-1zM608 25v-1h2v1h-2zM43 745q-1 -71 15 -155q24 -116 74 -207l55 -86l45 -55q47 -48 100 -90q59 -42 113 -70
q67 -29 121 -48h5l-4 3q-112 39 -200 115q-32 27 -77 79q-112 151 -127 326q-14 223 113 402l35 42q16 22 83 79l45 32q105 61 171 74q85 21 158 20v175q85 -28 158 -76q61 -45 98 -82l36 -42q69 -87 104 -189l-41 -74q-73 -111 -181 -185q-49 -33 -115 -62l-59 -19l-3 155
v2l-67 -22l-64 -31l-55 -35l-52 -40q-51 -46 -90 -95l-44 -66l-26 -47q50 -143 156 -249q79 -70 135 -98l46 -23l53 -18l3 -3l3 177l64 2l63 10l59 15l53 20q56 26 100 53q51 38 85 69q88 84 135 199q39 97 45 212q0 78 -12 143l-13 54l-22 56l-31 61l-31 50q-23 34 -65 79
l-50 43q-159 121 -361 131q-156 3 -307 -62q-75 -36 -112 -62l-44 -32l-40 -34l-47 -45q-91 -107 -139 -225q-42 -119 -50 -251zM752 1470l87 -4l73 -10q87 -21 114 -32q85 -37 116 -54l57 -38l56 -46l44 -41q112 -123 153 -233q45 -103 54 -248l-1 -102q-17 -111 -28 -138
q-72 -243 -286 -400q-104 -71 -234 -107q-125 -25 -162 -25h-11l-95 5l-59 9l-64 16q-124 37 -226 107q-56 43 -95 82q-203 213 -214 487l1 101q11 84 30 145q17 56 37 100l31 61l46 66q24 33 73 85q62 57 101 85q61 40 105 59q66 35 182 59q64 11 115 11z" />
    <glyph glyph-name="Aries" unicode="&#x2021;" horiz-adv-x="1858" 
d="M155 1169l13 -113q128 -127 268 -155l-98 -155q-183 29 -254 282q-8 48 -8 92q0 260 290 345h183q324 -113 380 -409q141 325 183 310q180 104 318 104q218 0 330 -259q1 -23 1 -45q0 -340 -212 -420l-141 155l169 71q113 89 113 171q0 112 -211 209h-113
q-437 -84 -324 -1352h-240v958q-41 281 -309 394q-240 29 -338 -183z" />
    <glyph glyph-name="Taurus" unicode="&#xb7;" horiz-adv-x="1225" 
d="M270 696q-15 -425 380 -629q190 -30 293 234q14 453 -381 629q-219 29 -292 -234zM109 1500q44 -190 249 -336q570 -278 746 336l-30 -234q-73 -190 -278 -278q344 -153 344 -473q0 -46 -7 -97q-88 -337 -410 -425q-52 -6 -100 -6q-386 0 -529 416q-11 51 -11 103
q0 153 99 307q161 175 219 175q-292 132 -292 497v15z" />
    <glyph glyph-name="Gemini" unicode="&#x201a;" horiz-adv-x="1386" 
d="M101 1454v5l1202 1l1 -6q-112 -13 -126 -139v-1218q27 -97 126 -97v-3h-1204l1 3q112 56 112 154v1203q-29 97 -112 97zM520 56h335l71 70v1217l-71 69h-335l-56 -69v-1231z" />
    <glyph glyph-name="Cancer" unicode="&#x201e;" horiz-adv-x="1855" 
d="M168 1015q196 364 673 447q54 2 106 2q752 0 803 -393q5 -42 5 -80q0 -334 -326 -397q-364 -41 -448 211q-15 140 27 224l85 97l84 43h55q-154 -85 -139 -280q27 -112 181 -183l169 15l112 154q28 321 -449 392q-630 14 -938 -252zM421 847q336 42 448 -196
q42 -281 -197 -378h-69q181 112 154 280q-28 112 -182 182q-169 56 -295 -168q-13 -197 141 -294l308 -85q545 -27 938 239q-169 -336 -673 -434q-53 -1 -102 -1q-756 0 -807 393q-7 44 -7 84q0 280 343 378z" />
    <glyph glyph-name="Leo" unicode="&#x2030;" horiz-adv-x="1596" 
d="M721 1462q84 7 159 7q442 0 501 -288l-13 -225l-71 -169q-225 -338 -281 -506q0 -155 168 -211q142 -28 240 127l-15 70q-13 14 -56 -43q-140 0 -154 71q-28 99 70 140q155 29 239 -126q6 -32 6 -61q0 -201 -260 -263h-45q-365 0 -418 212v125q28 99 295 493
q225 451 -127 591q-197 28 -295 -169l42 -323q0 -394 -295 -450q-309 -15 -337 155q-5 28 -5 54q0 139 131 198h56q-126 -56 -99 -210q29 -71 113 -113q155 -42 226 211l-42 507q98 182 267 196z" />
    <glyph glyph-name="Virgo" unicode="&#xc2;" horiz-adv-x="1752" 
d="M86 1316q15 130 145 143q46 5 84 5q186 0 174 -120q106 116 275 116q60 0 129 -14l85 -87q95 103 232 103q90 0 200 -46l72 -72l15 -172q115 -15 173 -216q3 -34 3 -69q0 -146 -46 -320l-187 -316l230 -288l-115 15l-173 200l-173 -215h-144q173 215 245 360l-101 144
q-129 360 -86 388q-15 130 29 202q57 100 129 100q72 116 -101 202q-158 15 -202 -86v-979h-215l-15 1022q-43 43 -158 43q-72 -28 -86 -72v-979h-216v965q-72 158 -202 43zM1353 380h29l115 360q28 274 -130 346q-100 28 -172 -174q-15 -172 158 -532z" />
    <glyph glyph-name="Libra" unicode="&#xca;" horiz-adv-x="1414" 
d="M570 1468q34 2 67 2q561 0 668 -455q8 -65 8 -122q0 -168 -64 -275l-70 -99l-71 -57h197v-169h-509q312 212 283 694q-71 311 -325 425q-199 28 -297 -114q-57 -71 -143 -311q-56 -482 284 -694h-510v169h170q-170 190 -170 436q0 122 43 258q155 269 439 312zM88 165
h1217v-169h-1217v169z" />
    <glyph glyph-name="Scorpio" unicode="&#xc1;" horiz-adv-x="2108" 
d="M93 1306q15 114 144 158q51 4 91 4q115 0 124 -33l72 -86q58 115 144 115h187l100 -44l58 -57q59 106 176 106q25 0 54 -5q14 1 26 1q139 0 217 -145v-1048q97 -271 246 -271q96 0 215 112q14 72 -30 115l-100 -57v345l230 -216l-86 -72q28 -64 28 -116q0 -133 -186 -185
q-51 -4 -97 -4q-255 0 -377 134l-72 171v1034q-29 101 -172 101l-87 -86v-977h-215l-14 1006q-29 57 -173 57l-86 -86v-977h-216v962q-43 101 -100 101q-72 0 -101 -57z" />
    <glyph glyph-name="Sagittarius" unicode="&#xcb;" horiz-adv-x="1508" 
d="M342 743l214 -114l630 629l-158 14l372 186h29l-157 -429l-15 157l-514 -615l-73 -56v-43l73 -86q71 -143 -43 -158l-72 115l-57 57l-344 -429l-157 143l386 414q15 15 -157 115z" />
    <glyph glyph-name="Capricorn" unicode="&#xc8;" horiz-adv-x="1563" 
d="M58 1168q171 71 285 314q114 -100 271 -157q215 -57 386 -14l286 71l228 85q-586 -371 -842 -698q542 170 700 -286q56 -371 -401 -500q-40 -1 -77 -1q-566 0 -579 401l14 171l-100 -57q-100 -100 -157 -214q57 314 300 400q42 170 500 471h-228l-215 85l-57 72
q-100 -129 -300 -143h-14zM800 41q286 -30 371 285q29 271 -243 400q-142 13 -299 -43l-86 -172q-43 -343 257 -470z" />
    <glyph glyph-name="Aquarius" unicode="&#xcd;" horiz-adv-x="1858" 
d="M141 1063q14 285 157 385h85l114 -128l201 -429l57 -71l272 600q62 45 125 45q37 0 75 -17q57 -14 128 -156q185 -372 271 -458q72 14 86 86l57 172q1 -30 1 -57q0 -295 -144 -387h-99l-101 86l-271 486l-72 57q-28 -15 -256 -558q-72 -84 -172 -71q-100 43 -371 614
l-57 -28zM98 406q43 328 157 371h86q85 -43 128 -142q186 -416 258 -487l257 571q86 101 214 43l86 -85q214 -428 314 -514q100 71 143 257q-14 -400 -143 -442h-100q-115 56 -171 185l-201 371l-56 58q-58 0 -73 -58q-199 -556 -299 -556q-26 -3 -46 -3q-61 0 -82 31
l-58 71q-185 400 -271 515l-72 -58z" />
    <glyph glyph-name="Pisces" unicode="&#xce;" horiz-adv-x="1249" 
d="M132 -45l66 165q94 253 94 553l-205 -59l15 103l161 44q38 10 29 87q-65 531 -234 644q184 -50 263 -161q191 -269 191 -531h232q46 378 425 677q-204 -321 -204 -702q223 -37 223 -71t-19 -75l-204 44q0 -497 219 -702q-268 0 -436 713h-237q-56 -430 -379 -729z" />
    <glyph glyph-name="Valve" unicode="&#xcf;" horiz-adv-x="2240" 
d="M2242 0l-1108 634l1108 638v-1272zM-2 1272l1108 -638l-1108 -634v1272z" />
    <glyph glyph-name="Florin" unicode="&#xcc;" horiz-adv-x="1244" 
d="M921 1024q5 43 4 90q-3 135 -36 197t-71 85l-2 1q-30 -11 -72 -47q-78 -69 -92 -318q174 -14 269 -8zM735 563q88 82 142 249q23 74 36 142h-44q-95 0 -230 4q-33 -242 -73 -452q111 -4 169 57zM402 520q35 214 67 440q-212 -13 -221 -197q-8 -181 154 -243zM124 -410
q-21 0 -8 53q20 76 44.5 84.5t59 97t95 289.5t76.5 315q-298 94 -298 348v6q4 260 393 256q56 340 171 401q94 47 168 47h46q16 0 32 -2q117 -72 153 -177q30 -85 23 -266q26 3 49.5 7t27.5 -18q1 -4 1 -8q0 -19 -15 -37q-13 -15 -69 -22v-3q-20 -243 -158 -410
q-115 -141 -304 -135q-32 -1 -64 2q-65 -286 -143 -472q-78 -190 -113 -246t-92 -96q-20 -14 -31 -14h-44z" />
    <glyph glyph-name="CleaningPP" unicode="&#xd3;" horiz-adv-x="1686" 
d="M816 1488h20q85 0 191 -22q249 -68 414 -273q142 -190 151 -432v-22q0 -85 -21 -190l-43 -124q-93 -193 -240 -298q-199 -133 -425 -146q-122 3 -140 10q-110 23 -181 52l-97 49l-81 56q-261 224 -276 563l9 146q22 109 47 168q65 142 159 240q236 223 513 223zM819 121
q68 -3 186 21q99 28 212 106q111 87 174 214q56 118 65 252q0 153 -53 267q-28 63 -72 128q-84 99 -195 165q-116 65 -255 75q-78 3 -143 -7l-63 -13q-123 -46 -173 -81l-97 -76l-62 -72q-72 -113 -96 -200l-19 -126l3 -128l19 -84q37 -112 102 -202q87 -112 215 -175
q93 -49 252 -64zM585 1143l345 -3q234 -25 246 -214q6 -62 -12 -125q-16 -44 -43 -75q-119 -117 -362 -90v-314h-174v821zM759 777h131q84 12 100 90q12 123 -100 140h-131v-230zM88 -84h1504v-140h-1504v140z" />
    <glyph glyph-name="MultiplicationDot" unicode="&#x2dc;" 
d="M604 819h197v-193h-197v193z" />
    <glyph glyph-name="Bat" unicode="&#x2dd;" horiz-adv-x="2452" 
d="M1200 -31q-34 101 -95.5 93t-110.5 23.5t-112 -79.5v67l-39 -54l3 90q92 49 -9.5 191t-397.5 31q-73 174 -253 105q99 190 -140 192q140 194 504 249l-52 32q64 2 99 -20t139 -41t194 -63t109 -10t-17 93t-12 157q16 65 35 65q10 0 21 -17q31 -51 61 -81t73 -112
q45 82 68.5 113.5t61.5 82.5q13 17 23 17q20 0 32 -59q16 -94 -9.5 -164t-17 -105t86.5 8t223.5 79t160 62t79.5 26l-41 -42q277 -21 539 -234q-236 -45 -187 -214q-249 74 -249 -108q-358 118 -430.5 -32.5t18.5 -207.5l-46 -88v79l-37 -79q-37 116 -90.5 87.5t-91.5 -28
t-93 -104.5z" />
    <glyph glyph-name="WomanFace" unicode="&#x2db;" horiz-adv-x="1749" 
d="M1122 1491q-10 -5 -14 -6t-13 -1q-2 7 -2 9t2 10q8 -2 14 -5t13 -7zM1597 428h-18v19q10 -5 18 -19zM1648 361h-18l13 12q3 -3 5 -12zM1688 280l-14 7l14 13v-20zM1597 293q-6 -4 -12 -6q-4 4 -6 13q10 0 13 -3t5 -4zM1643 201h-6q-7 2 -7 10q0 4 4 5.5t9 2.5q2 -4 2 -9
q0 -6 -2 -9zM1674 170l-13 -6l-6 12q11 0 19 -6zM1477 337l-6 -13l-20 6q8 3 13.5 4.5t12.5 2.5zM1491 280q-7 8 -14 20h14q2 -8 2 -9t-2 -11zM1521 244h-18l13 12q3 -4 5 -12zM1547 201q-6 1 -8.5 1.5t-10.5 4.5l13 12q4 -5 4.5 -9t1.5 -9zM1623 588q-12 -12 -16 -19
t-4 -12q1 -12 1 -24l-12 6q-14 -23 -14 -31q0 -7 26 -12q-8 -8 -17.5 -17t-19.5 -26q-9 12 -12 22t-3 17q0 10 -2 10q-13 0 -31.5 -10.5t-27.5 -20.5q3 -1 30 -15q15 -7 26 -15q-16 0 -59.5 -18.5t-61.5 -31.5q8 -1 20 -1q18 1 31 1q-18 -19 -26 -25.5t-15 -6.5q-4 0 -10 2
q-17 5 -19 5v-24q-41 -11 -95 -41q-102 -57 -134 -57q-7 0 -18 11q-8 8 -8 14q0 12 17.5 44.5t17.5 48.5q0 19 -21 29q20 72 32 127.5t12 76.5q0 32 -19.5 59t-34.5 27t-45.5 -24.5t-62.5 -24.5q-60 0 -85 42q-24 -9 -29 -11.5t-5 -5.5q1 -9 1 -20q-8 2 -18.5 5t-11.5 3
q-6 -1 -14 -1q-7 14 -13 17q18 25 35 38q10 8 29 18l-21 7q-12 6 -23 18q40 4 70 42q25 31 25 54q0 8 -10 17t-20 9q-13 0 -44 -29t-28 -50h-19l-4.5 22.5t-2.5 18.5q0 11 6.5 18t6.5 12l-19 27q-1 3 -1 10q0 12 7.5 26t7.5 19q0 13 -16 25q-19 16 -68 37q-16 7 -51 13
q-12 2 -32 5q-25 9 -37 47t-29 38q-33 0 -98 -80q-78 -97 -78 -199q0 -3 10 -15q3 -3 10 -12q5 11 6 13.5t1 10.5l18 -24q-7 -2 -13 -5t-12 -7q30 0 45 6.5t28 6.5q18 0 70 -14q68 -19 104 -42q0 -5 -0.5 -12t-4.5 -7q-30 0 -64 15q-74 35 -86 35q-28 0 -54 -18t-26 -41
q0 -6 1 -9l-13 12q-3 -6 -7 -10q4 -4 7 -9l-13 7q-4 -6 -18 -35q-4 -10 -14 -29q3 -7 4 -10q7 -13 15 -19q-1 -4 -1 -10.5v-10.5q0 -50 26 -123q8 -25 26 -65q0 -7 -6.5 -14.5t-6.5 -12.5q0 -15 11 -43.5t22 -56.5q0 -22 -13 -49t-31 -27q-4 0 -7 1q-28 0 -38 -6
q-14 -11 -25 -19q3 6 9.5 12t8.5 7q-17 16 -25 21t-18 5q-3 0 -15.5 -1t-23.5 -1q-2 12 0 15t6 4q-11 15 -19 22q-23 22 -50 22q-5 0 -14 -2q6 11 7 20l-13 12l-7 -12h-18l18 12q-24 13 -48 27q-10 6 -10 12q2 9 2 22q0 15 -9 20.5t-27 5.5q-20 -1 -28 -1q14 -18 19 -24
q9 -10 13 -20q-10 5 -53 12q-62 10 -62 75q0 10 5.5 26.5t7.5 28.5q4 -17 4 -18q3 -4 9 -13q3 4 7.5 9.5t11.5 21.5q-39 25 -44 29.5t-20 32.5q18 5 31 9.5t27 20.5q-5 1 -10 3l-16 -3q7 11 9 12t3 2q-1 1 -1 2q-3 8 -4 15q15 6 25 6q2 21 5 28t6 15q0 4 -11 30q8 4 12 12
q-2 -7 0 -17q35 25 55 79q17 45 17 83v8q-2 6 -2 7q10 4 13 7q1 -9 7 -19q17 20 23 29q11 16 15 39l-45 -31q17 24 48 39q54 28 54 35q0 14 -26 36q32 10 41 24q7 21 16 38v36q-12 2 -15 2q-4 0 -16 -2l29 29q20 22 20 31q-5 5 -8 9q-9 11 -22 30l26 -12q0 45 11 57
q24 14 46 29q-1 2 -5.5 12.5l-7.5 17.5q23 0 48 28.5t21 39.5q14 -3 29 -5q19 14 29 21q33 23 58 33q4 2 14.5 2.5t18.5 0.5q11 0 22.5 -0.5t23.5 -0.5q25 0 35 5q22 19 46 34t41 15l90 -25q17 0 30 2q47 6 53 6q39 0 80 -16q53 -21 117 -72q4 11 5.5 19t1.5 18h44v-55
l12 -6q8 0 21.5 6t36.5 25h32q-12 -20 -22 -27q-18 -12 -35 -22q5 -13 67 -75q68 -68 136 -135q87 -89 133 -146q-10 -13 -15 -28.5t-5 -31.5q0 -9 1.5 -27.5t1.5 -28.5q0 -20 -4 -33.5t-17 -29.5q14 -14 20 -25q-14 8 -15.5 11.5t-4.5 7.5l-14 -31q28 -27 50.5 -49.5
t22.5 -38.5q0 -13 -14 -23q11 -7 17.5 -9t14.5 -3q0 -20 1.5 -27.5t10.5 -21.5zM943 453q-10 -4 -20 -12q-15 12 -20.5 22t-16.5 51q15 -16 24 -26q19 -18 33 -35zM778 637q-17 0 -31 -4q-30 -8 -33 -8v31q-9 3 -19 6q-15 -19 -35.5 -34t-53.5 -15q-24 0 -49 19
q-36 28 -58 36v18q5 -1 14 -1q31 9 62 15t75 6q57 0 87 -15t41 -54zM918 386q-6 -4 -12 -7h-13q5 7 7.5 10t10.5 9zM1171 119q0 -7 -19.5 -51t-24.5 -51q4 31 5.5 71t1.5 88q17 -22 32 -48q2 -3 5 -9zM841 201q-53 0 -94 36q-60 54 -64 56q3 0 8.5 -0.5t14.5 -0.5
q37 0 106 4t182 16q-43 -67 -45 -69q-34 -42 -108 -42zM1051 668q-3 -2 -7 -5q-2 -3 -5 -7q8 4 12 12zM898 1528q-11 1 -23 2l-8 4q7 0 12.5 -1t18.5 -5zM1541 416q-9 -4 -19 -7t-19 -5q21 10 38 12zM1623 398q-1 -2 -1 -4l-18 4q7 3 8 3q4 0 11 -3zM797 379h-11q-4 3 -8 7
q11 0 13 -1q4 -5 6 -6zM1547 366q-1 -1 -1 -3l-18 4q4 2 7 5q2 0 12 -6zM1140 1516l-8 -2q-6 1 -10 2q4 2 11 2q3 0 7 -2zM1572 330q-1 -2 -1 -4q-9 2 -17 4q3 2 7 5q1 0 11 -5zM1674 330q-9 -1 -12.5 -0.5t-6.5 0.5q6 2 10.5 1.5t8.5 -1.5zM1026 840q0 -3 1.5 -7.5
t4.5 -11.5q-1 9 -6 19zM276 238h-26q5 1 8.5 1h4.5q10 0 13 -1zM1370 231q-5 -4 -10 -7t-10 -5q10 9 20 12zM1464 225q-7 -3 -13 -6q7 5 13 6zM868 1004q0 -1 -1 -1q3 -8 6 -15q4 11 7 30q-8 -8 -12 -14zM1197 1460q-2 -1 -5 -2q-7 6 -7 17q1 2 3 5q6 -7 9 -20zM244 213
q-7 -3 -13 -6q7 4 13 6zM1528 152v-2q-3 -1 -8 -1h-10q-1 1 -1 3q7 2 11 2t8 -2zM556 35q-2 4 -4 12t-3 19q1 -5 2.5 -9.5t4.5 -21.5zM1496 895l-5 31l-15 -19q3 -1 6 -2.5t14 -9.5zM1528 858v37q-6 -6 -9.5 -11t-3.5 -11q0 -9 6 -11t7 -4zM1579 551q-5 8 -7 18
q-8 -6 -12 -12q6 -8 7 -12q4 4 12 6zM943 932v49q-5 -10 -14 -19l-6 -6q0 -5 13 -18q2 -2 7 -6zM1127 742l-19 17q2 -12 7 -24q4 5 12 7zM842 988q0 16 -2 31.5t-2 18.5v15t4 21q-11 -13 -12.5 -23t-26.5 -21q4 23 6.5 33t12.5 40l-25 -5q-1 -21 -15.5 -38t-34.5 -23
q5 14 9.5 26t4.5 25v10q-2 8 -2 12q-14 2 -41 4t-42 2l-6 -14q0 -48 53 -63q64 -20 68 -21q5 9 19 12v-18q6 -3 11.5 -7t20.5 -17zM911 877q-3 9 -5.5 17t-7.5 19q-2 -8 -3.5 -21.5t-1.5 -27.5zM873 919q-4 -9 -7 -11.5t-7 -5.5q3 -4 4 -6q4 -11 4 -19q6 13 6 26v16z
M625 625l-26 31q-1 -6 -5 -12zM893 238q-39 -6 -47 -6.5t-49 -0.5q9 -5 18 -9q14 -8 17 -8q12 0 30 7t31 17zM410 569q5 -5 7 -5v20q-13 45 -23 45q-4 0 -4 -10q-1 -24 -1 -28q0 -2 3 -5q9 -7 18 -17zM1623 497q-2 3 -4 7q-1 8 -1 16h1q-1 -2 1.5 -6t2.5 -17z" />
    <glyph glyph-name="ManFace" unicode="&#x2c7;" horiz-adv-x="1205" 
d="M925 633q-14 0 -26.5 -2t-27.5 -7q15 0 31 1l32 8h-9zM934 678l-12 52q-5 -6 -13.5 -14.5l-12.5 -12.5zM556 -354q-8 3 -20 7t-19 6l-14 -27q9 -3 19.5 -7t20.5 -5q2 11 3.5 13.5t9.5 12.5zM1037 97l3 -7q-2 3 -3 7zM617 34q-10 -21 -22 -61l-39 26q18 6 32 15
q12 8 29 20zM620 39q-12 11 -13 17q-2 7 -3 7q-5 -3 -10 -6.5t-12 -6.5q6 12 10 19t16 21l-79 25q7 11 21 29q11 14 19 24q-16 7 -27 10.5t-25 3.5q7 16 25 51q14 26 14 41q0 28 -9 42q-15 22 -56 22l-79 130q22 0 26 14l53 -26q23 28 26 34q1 2 12 31q13 -14 27 -25
l-27 -54q11 0 21.5 4t18.5 10q-3 -9 -5 -12.5t-8 -14.5l26 -38q11 10 24 18q26 17 29 20v-38q13 -5 21 -7q23 -6 36 -6q22 0 56 16q41 21 56 48q3 -11 8 -21q9 -18 32 -18q10 0 71 43q37 25 59 36v51l-38 40q-8 -6 -36 -20q-15 -7 -15 -20q0 -11 11 -39q-18 -4 -37.5 -7.5
t-48.5 -3.5h-41q-17 0 -28 10l-28 28q22 17 34.5 24t30.5 14q-4 1 -34 19q-15 8 -17 8q-11 0 -71 -17t-87 -36q-10 12 -19 24q-18 16 -47 29l16 26q7 14 10 39l40 -13q7 11 15 23q10 17 10 42q6 1 12 4q31 17 81 75q-8 -11 -35 -58q-30 -54 -30 -59q0 -20 19 -39
q7 -6 20 -14q2 -1 0.5 -8.5t-1.5 -8.5q0 -9 14 -9q6 0 61 19q28 9 57 19q-27 12 -38.5 18t-14.5 9q2 9 2 19q0 9 -3 20t-11 26q27 0 59.5 -0.5t67.5 -1.5q39 0 52.5 5.5t13.5 22.5q0 10 -3.5 25.5t-7.5 27.5q43 -34 89 -78l68 -66v-130q-47 -56 -56 -66q-38 -48 -62 -117
v-144q-8 -25 -75 -131q-62 -97 -69 -104l14 52l-26 39q-37 -45 -75 -88q-63 -74 -109 -124q-63 -67 -91 -88q1 -8 3 -15t9 -24q72 47 109 99q12 18 23 45q13 10 26 13.5t26 3.5q12 0 25.5 -2.5t14.5 -1.5q16 27 29 46t22 19q18 0 46 -30q76 -80 163 -113q-41 -40 -66 -40
t-25 -25l-8 -2q-10 7 -20 15q-1 0 -88 -34q-18 -6 -171 -67q-97 -38 -106 -44h-52v53l52 51q-54 50 -61 50q-8 0 -30 -36q-7 22 -15 43q-19 49 -51 49q-24 0 -62 -24l-74 -54q-23 0 -65 46q-3 4 -46 58l8 16q2 5 5 23q100 0 109 37q14 59 87 94q5 -13 8.5 -23t16.5 -29
q2 5 14 14.5t12 11.5q0 22 -65 90.5t-65 97.5q13 8 19 12q19 14 20 21q-5 14 -11 37.5t-6 43.5q0 33 9.5 66.5t33.5 74.5q0 -258 66 -369q59 -99 183 -99q18 0 62.5 5.5t69.5 5.5q1 25 7 55q1 9 5 23q-9 4 -27 18q-12 9 -26 9q-22 0 -35 -16q-3 -4 -5 -9zM1105 1123
q-10 -32 -18.5 -68.5t-8.5 -77.5h-1q1 243 -130 368q-107 101 -312 130l78 12q53 0 88 -11q84 -26 121 -26q43 0 114 -139q69 -132 69 -188zM1052 965q0 -29 -36 -65q-40 -39 -82 -39q-27 0 -75 54q-34 38 -67 76q62 33 100 45q27 8 48 8q61 0 86.5 -15t25.5 -64zM752 972
q0 -31 -45 -62q-19 -14 -85 -50h-119q16 10 28 19.5t25 20.5q-14 3 -28.5 4t-30.5 1q-20 0 -34 -2t-25 -3q48 75 99 92q95 20 190 39l-26 -27q5 -1 10.5 -3.5t6.5 -2.5q2 0 21 6l6 -6q7 -8 7 -26zM543 1461q-14 -14 -22.5 -20t-44.5 -6q-34 0 -85 -55q-58 -61 -96 -153
q-45 -110 -45 -229q0 -48 7 -99t25 -104h-79q4 23 8 32.5t18 32.5l-39 40l-38 -67q0 11 -0.5 21.5t-0.5 18.5q0 16 3 19.5t23 19.5q-43 52 -45 61q-7 20 -7 130q0 160 101.5 266t262.5 106q13 0 30.5 -6t23.5 -8zM1040 220q0 -1 1 -2q-8 -19 -14 -36q1 8 3 14t10 24z
M974 168q13 22 23 44q1 3 4 8q-4 -25 -9 -45q-13 -48 -18 -72v65z" />
  </font>
</defs>
</svg>
